1 (edited by Peepo_UK 2019-01-11 12:29:25)

Added via new disc form

Title: Flying Power Disc ~ Windjammers
フライングパワーディスク
Disc Number / Letter: (OPTIONAL)
Disc Title: (OPTIONAL)
System: SNK Neo Geo CD
Media Type: CD-ROM
Category: Games
Region: Japan
Languages: English? (Emulator crashes)
Disc Serial: DECD-002
Ringcode Information:
    Mastering Ring: DECD-002 MT    B03
    Mastering SID Code: IFPI L262
    Mould SID Code: IFPI 4419
    Additional Mould: R
    Toolstamp or Mastering Code: (REQUIRED, IF EXISTS)
Barcode (Obi): T4964808 50060 4
Error Count: 0
Comments: (OPTIONAL)
Contents: (OPTIONAL)
Version: (REQUIRED, IF EXISTS)
Edition/Release: Original
Primary Volume Descriptor (PVD):

0320 : 20 20 20 20 20 20 20 20  20 20 20 20 20 31 39 39                199
0330 : 34 31 32 32 36 31 38 31  32 32 37 30 30 24 31 39   4122618122700$19
0340 : 39 34 31 32 32 36 31 38  31 32 32 37 30 30 24 30   94122618122700$0
0350 : 30 30 30 30 30 30 30 30  30 30 30 30 30 30 30 00   000000000000000.
0360 : 30 30 30 30 30 30 30 30  30 30 30 30 30 30 30 30   0000000000000000
0370 : 00 01 00 00 00 00 00 00  00 00 00 00 00 00 00 00   ................

Cuesheet:

FILE "FlyingPowerDisc (Track 01).bin" BINARY
  TRACK 01 MODE1/2352
    INDEX 01 00:00:00
FILE "FlyingPowerDisc (Track 02).bin" BINARY
  TRACK 02 AUDIO
    INDEX 00 00:00:00
    INDEX 01 00:02:00
FILE "FlyingPowerDisc (Track 03).bin" BINARY
  TRACK 03 AUDIO
    INDEX 00 00:00:00
    INDEX 01 00:02:00
FILE "FlyingPowerDisc (Track 04).bin" BINARY
  TRACK 04 AUDIO
    INDEX 00 00:00:00
    INDEX 01 00:02:00
FILE "FlyingPowerDisc (Track 05).bin" BINARY
  TRACK 05 AUDIO
    INDEX 00 00:00:00
    INDEX 01 00:02:00
FILE "FlyingPowerDisc (Track 06).bin" BINARY
  TRACK 06 AUDIO
    INDEX 00 00:00:00
    INDEX 01 00:02:00
FILE "FlyingPowerDisc (Track 07).bin" BINARY
  TRACK 07 AUDIO
    INDEX 00 00:00:00
    INDEX 01 00:02:00
FILE "FlyingPowerDisc (Track 08).bin" BINARY
  TRACK 08 AUDIO
    INDEX 00 00:00:00
    INDEX 01 00:02:00
FILE "FlyingPowerDisc (Track 09).bin" BINARY
  TRACK 09 AUDIO
    INDEX 00 00:00:00
    INDEX 01 00:02:00
FILE "FlyingPowerDisc (Track 10).bin" BINARY
  TRACK 10 AUDIO
    INDEX 00 00:00:00
    INDEX 01 00:02:00
FILE "FlyingPowerDisc (Track 11).bin" BINARY
  TRACK 11 AUDIO
    INDEX 00 00:00:00
    INDEX 01 00:02:00
FILE "FlyingPowerDisc (Track 12).bin" BINARY
  TRACK 12 AUDIO
    INDEX 00 00:00:00
    INDEX 01 00:02:00
FILE "FlyingPowerDisc (Track 13).bin" BINARY
  TRACK 13 AUDIO
    INDEX 00 00:00:00
    INDEX 01 00:02:00
FILE "FlyingPowerDisc (Track 14).bin" BINARY
  TRACK 14 AUDIO
    INDEX 00 00:00:00
    INDEX 01 00:02:00
FILE "FlyingPowerDisc (Track 15).bin" BINARY
  TRACK 15 AUDIO
    INDEX 00 00:00:00
    INDEX 01 00:02:00
FILE "FlyingPowerDisc (Track 16).bin" BINARY
  TRACK 16 AUDIO
    INDEX 00 00:00:00
    INDEX 01 00:02:00
FILE "FlyingPowerDisc (Track 17).bin" BINARY
  TRACK 17 AUDIO
    INDEX 00 00:00:00
    INDEX 01 00:02:00
FILE "FlyingPowerDisc (Track 18).bin" BINARY
  TRACK 18 AUDIO
    INDEX 00 00:00:00
    INDEX 01 00:02:00
FILE "FlyingPowerDisc (Track 19).bin" BINARY
  TRACK 19 AUDIO
    INDEX 00 00:00:00
    INDEX 01 00:02:00
FILE "FlyingPowerDisc (Track 20).bin" BINARY
  TRACK 20 AUDIO
    INDEX 00 00:00:00
    INDEX 01 00:02:00

Write Offset: 2

DAT:

<rom name="FlyingPowerDisc (Track 01).bin" size="7766304" crc="abcf10f8" md5="6d5afc44826c5ad1c5eaa1fec5d09629" sha1="15481015cf9192a1f86d39b5f86ba1f881f65f3f" />
<rom name="FlyingPowerDisc (Track 02).bin" size="25973136" crc="4f301e65" md5="c0e5679ce3a598bf2197d1875b354d82" sha1="fb8e94a390632bb5aa7915f77c4dc9e27e1dfe45" />
<rom name="FlyingPowerDisc (Track 03).bin" size="26568192" crc="88dca222" md5="615a5b44cca91e226819e43813bab479" sha1="ca6223ac6770dab2241cb4d5951e5aed8e8d0333" />
<rom name="FlyingPowerDisc (Track 04).bin" size="26695200" crc="0d2b9fc1" md5="7f629c12b93d0d7d3600e9ebc48114f4" sha1="663abb90edd44eec86f3b69bb6a45cc05359df7d" />
<rom name="FlyingPowerDisc (Track 05).bin" size="19799136" crc="cd793886" md5="bb882ada7abc2616ff60146d1fb92d2d" sha1="4ac4de831b77b6c55fcc6b63aba7988f55ca51f0" />
<rom name="FlyingPowerDisc (Track 06).bin" size="3346896" crc="2b4f8793" md5="b9cf9df84a21b8ae41c07a577b591d3b" sha1="ae320af607828e79855dc72515fa1936d968e62f" />
<rom name="FlyingPowerDisc (Track 07).bin" size="3727920" crc="46ec275c" md5="df4f1823b965222f1351fa3fc150dc74" sha1="f06ac98d27aa4cd2b6ad2c093fe309453a8c1520" />
<rom name="FlyingPowerDisc (Track 08).bin" size="3078768" crc="9586e0d9" md5="723f7e995d781c0e94554f78e2cee948" sha1="06d5c73f74de018306aa42a14ad749e74d510a4f" />
<rom name="FlyingPowerDisc (Track 09).bin" size="28797888" crc="f3b70fd2" md5="a8a97807f11f6b1514b7984ad7c62198" sha1="838ae6301345094743c27e17070e57d75dda6957" />
<rom name="FlyingPowerDisc (Track 10).bin" size="23160144" crc="8f70bb1b" md5="dbe867f124e395a15ff081dc288cf90d" sha1="0e1410c184d795ff7c72283ccd81296d137c6ed8" />
<rom name="FlyingPowerDisc (Track 11).bin" size="27915888" crc="c67f8fd5" md5="f6fbf093a5f1d27c1ef6f6c9f68e2357" sha1="868206e7f2d2a36197a10cdd03dad04a73d0a584" />
<rom name="FlyingPowerDisc (Track 12).bin" size="20681136" crc="7979191b" md5="c14bfcf8c89b8784811494e70f2b3122" sha1="59b7aae2ac9a3df74ec5b330cefb5271bea58e1e" />
<rom name="FlyingPowerDisc (Track 13).bin" size="6658512" crc="6260b665" md5="20d3ebd7ddce7c8b003489e7065934f8" sha1="517fe83ed2d192fa2285e1cce36bde7f48357e3b" />
<rom name="FlyingPowerDisc (Track 14).bin" size="3121104" crc="13d5b740" md5="a4bdb285649d567fde390b0f41f547c8" sha1="63054fd4947556c85b06026cf5dc9df383658a56" />
<rom name="FlyingPowerDisc (Track 15).bin" size="1982736" crc="61d4fcd4" md5="ffe0863a419ccfde581e18824babe35a" sha1="95a247847803f8f99944eb85a90f7ad7f7728359" />
<rom name="FlyingPowerDisc (Track 16).bin" size="2156784" crc="ae6c8cfa" md5="892b472af384c7a587d74486fcc75d92" sha1="d07862394f9f6f5373a5fb33de99d041881d9f02" />
<rom name="FlyingPowerDisc (Track 17).bin" size="2161488" crc="3c3f0f9f" md5="dee276b6e2e1788a798c202d587590e0" sha1="cbbcad9c5ee25ac71af1a55a05b62c08c756ff5c" />
<rom name="FlyingPowerDisc (Track 18).bin" size="2006256" crc="472b9b42" md5="88c62271066074e4a560f2229b5d64dd" sha1="c3b73bdc25553c184611e4aa4cda4ce06c72864f" />
<rom name="FlyingPowerDisc (Track 19).bin" size="1982736" crc="bf2b2222" md5="4dc0ddd66fc303bc7d75910b84abf6f7" sha1="7d24d1852698f115ba137799a53a7e1ca3032bfe" />
<rom name="FlyingPowerDisc (Track 20).bin" size="2335536" crc="02b2b09b" md5="badb84c257b397b465c60b03142a58a7" sha1="b131004b2838cc6441baab3b6ef35a37d5ea2512" />

Logs: https://mega.nz/#!YEgXBS7Y!0tAdfPGqfs87 … rGBnA7_Ee8