1 (edited by Peepo_UK 2019-01-11 12:30:01)

Added via new disc form

Title: Stakes Winner: GI Kanzen Seiha e no Michi
ステークスウィナーGI完全制覇への道
Disc Number / Letter: (OPTIONAL)
Disc Title: (OPTIONAL)
System: SNK Neo Geo CD
Media Type: CD-ROM
Category: Games
Region: Japan
Languages: English, Japanese ? (Crashes emulator)
Disc Serial: NGCD-088
Ringcode Information:
    Mastering Ring: NGCD-088 MT    B01
    Mastering SID Code: IFPI L262
    Mould SID Code: IFPI 4405
    Additional Mould: L
    Toolstamp or Mastering Code: (REQUIRED, IF EXISTS)
Barcode (Obi): 4 946318 096013
Error Count: 0
Comments: (OPTIONAL)
Contents: (OPTIONAL)
Version: (REQUIRED, IF EXISTS)
Edition/Release: Original
Primary Volume Descriptor (PVD):

0320 : 20 20 20 20 20 20 20 20  20 20 20 20 20 31 39 39                199
0330 : 36 30 33 30 37 31 32 33  38 31 31 30 30 00 31 39   6030712381100.19
0340 : 39 36 30 33 30 37 31 32  33 38 31 31 30 30 00 30   96030712381100.0
0350 : 30 30 30 30 30 30 30 30  30 30 30 30 30 30 30 00   000000000000000.
0360 : 30 30 30 30 30 30 30 30  30 30 30 30 30 30 30 30   0000000000000000
0370 : 00 01 00 00 00 00 00 00  00 00 00 00 00 00 00 00   ................

Cuesheet:

FILE "StakesWinner (Track 01).bin" BINARY
  TRACK 01 MODE1/2352
    INDEX 01 00:00:00
FILE "StakesWinner (Track 02).bin" BINARY
  TRACK 02 AUDIO
    INDEX 00 00:00:00
    INDEX 01 00:03:00
FILE "StakesWinner (Track 03).bin" BINARY
  TRACK 03 AUDIO
    INDEX 00 00:00:00
    INDEX 01 00:02:00
FILE "StakesWinner (Track 04).bin" BINARY
  TRACK 04 AUDIO
    INDEX 00 00:00:00
    INDEX 01 00:02:00
FILE "StakesWinner (Track 05).bin" BINARY
  TRACK 05 AUDIO
    INDEX 00 00:00:00
    INDEX 01 00:02:00
FILE "StakesWinner (Track 06).bin" BINARY
  TRACK 06 AUDIO
    INDEX 00 00:00:00
    INDEX 01 00:02:00
FILE "StakesWinner (Track 07).bin" BINARY
  TRACK 07 AUDIO
    INDEX 00 00:00:00
    INDEX 01 00:02:00
FILE "StakesWinner (Track 08).bin" BINARY
  TRACK 08 AUDIO
    INDEX 00 00:00:00
    INDEX 01 00:02:00
FILE "StakesWinner (Track 09).bin" BINARY
  TRACK 09 AUDIO
    INDEX 00 00:00:00
    INDEX 01 00:02:00
FILE "StakesWinner (Track 10).bin" BINARY
  TRACK 10 AUDIO
    INDEX 00 00:00:00
    INDEX 01 00:02:00
FILE "StakesWinner (Track 11).bin" BINARY
  TRACK 11 AUDIO
    INDEX 00 00:00:00
    INDEX 01 00:02:00
FILE "StakesWinner (Track 12).bin" BINARY
  TRACK 12 AUDIO
    INDEX 00 00:00:00
    INDEX 01 00:02:00
FILE "StakesWinner (Track 13).bin" BINARY
  TRACK 13 AUDIO
    INDEX 00 00:00:00
    INDEX 01 00:02:00
FILE "StakesWinner (Track 14).bin" BINARY
  TRACK 14 AUDIO
    INDEX 00 00:00:00
    INDEX 01 00:02:00
FILE "StakesWinner (Track 15).bin" BINARY
  TRACK 15 AUDIO
    INDEX 00 00:00:00
    INDEX 01 00:02:00
FILE "StakesWinner (Track 16).bin" BINARY
  TRACK 16 AUDIO
    INDEX 00 00:00:00
    INDEX 01 00:02:00
FILE "StakesWinner (Track 17).bin" BINARY
  TRACK 17 AUDIO
    INDEX 00 00:00:00
    INDEX 01 00:02:00
FILE "StakesWinner (Track 18).bin" BINARY
  TRACK 18 AUDIO
    INDEX 00 00:00:00
    INDEX 01 00:02:00
FILE "StakesWinner (Track 19).bin" BINARY
  TRACK 19 AUDIO
    INDEX 00 00:00:00
    INDEX 01 00:02:00
FILE "StakesWinner (Track 20).bin" BINARY
  TRACK 20 AUDIO
    INDEX 00 00:00:00
    INDEX 01 00:02:00
FILE "StakesWinner (Track 21).bin" BINARY
  TRACK 21 AUDIO
    INDEX 00 00:00:00
    INDEX 01 00:02:00
FILE "StakesWinner (Track 22).bin" BINARY
  TRACK 22 AUDIO
    INDEX 00 00:00:00
    INDEX 01 00:02:00
FILE "StakesWinner (Track 23).bin" BINARY
  TRACK 23 AUDIO
    INDEX 00 00:00:00
    INDEX 01 00:02:00
FILE "StakesWinner (Track 24).bin" BINARY
  TRACK 24 AUDIO
    INDEX 00 00:00:00
    INDEX 01 00:02:00
FILE "StakesWinner (Track 25).bin" BINARY
  TRACK 25 AUDIO
    INDEX 00 00:00:00
    INDEX 01 00:02:00
FILE "StakesWinner (Track 26).bin" BINARY
  TRACK 26 AUDIO
    INDEX 00 00:00:00
    INDEX 01 00:02:00
FILE "StakesWinner (Track 27).bin" BINARY
  TRACK 27 AUDIO
    INDEX 00 00:00:00
    INDEX 01 00:02:00

Write Offset: 780

DAT:

<rom name="StakesWinner (Track 01).bin" size="10290000" crc="04075e3a" md5="f61d5ab1c5c60ccaef2c19a4174c711a" sha1="278af36d282e76f4ee08a76826b06d9f3b5ec8e9" />
<rom name="StakesWinner (Track 02).bin" size="10038336" crc="016103f3" md5="e9fb6af0b75261897091383442362dac" sha1="66a5cb7deacdab8fd75521eccea539c6b9d982c5" />
<rom name="StakesWinner (Track 03).bin" size="4322976" crc="b22f0cc0" md5="7e9db7635c87e072e28107b622c682d3" sha1="026a290d70a90947b09578e20031076a26e08f67" />
<rom name="StakesWinner (Track 04).bin" size="4518192" crc="d5560dd2" md5="a7932e3fdd452883dc735a056e74c94b" sha1="203c59709ef33035d3b0892f7c1fc527008e278d" />
<rom name="StakesWinner (Track 05).bin" size="4271232" crc="bb212399" md5="202b5336c52253a04facdd99e8b3385c" sha1="4efaee6db253222acd4de34d4bc659fc90137779" />
<rom name="StakesWinner (Track 06).bin" size="22896720" crc="12e8b3d4" md5="04f822727b1dd1d539a0d242aa6ba6cd" sha1="3106b0155474ab0ae6fadbb97001387b32deee95" />
<rom name="StakesWinner (Track 07).bin" size="13117104" crc="6af7f17f" md5="328fee57c954657eda3a0475b64c60d0" sha1="2afe8fd354df4609b4bca02390f5b1cf97a77a70" />
<rom name="StakesWinner (Track 08).bin" size="18919488" crc="ee3dfa46" md5="65c9cf1ddc5743f72f9dfd1ee8812c03" sha1="3d1c25a3563be37b8ab6829df688e6b55f55806d" />
<rom name="StakesWinner (Track 09).bin" size="4311216" crc="29434040" md5="697c9bfa7783401f2859d2a26d363d45" sha1="489b5e5849fa61a97d62cc7e4c46f7151c6466bc" />
<rom name="StakesWinner (Track 10).bin" size="4464096" crc="a047509e" md5="397f88b93381672e8c4d5fbd0b6e967a" sha1="9effa4ed19cd60155748236a2c06e59674321198" />
<rom name="StakesWinner (Track 11).bin" size="3706752" crc="1bef7116" md5="61e720b3b296746c8febb5cea3f5237d" sha1="d0bdbdfa677ce517397ce2123fa5f9b9a8b7e3c5" />
<rom name="StakesWinner (Track 12).bin" size="10948560" crc="b7630d97" md5="64b60fe3334da880c1f8e5b163f1b31e" sha1="86586938e6af7f548c7a3d9f3a9e1204c0974a14" />
<rom name="StakesWinner (Track 13).bin" size="19448688" crc="a20cdcec" md5="069f32061f680be2c0243750bfe31a20" sha1="1d3a31b9d2a1b57a803d35c1909515870a3bc644" />
<rom name="StakesWinner (Track 14).bin" size="16539264" crc="3fe2f6e8" md5="086ecaa9fe052f5bdd43c8569ec80d69" sha1="39b7fc23c11d5a088baf2dde00d23b9023e75d8b" />
<rom name="StakesWinner (Track 15).bin" size="28755552" crc="2a5cd90e" md5="a016702055748b45cbce3b237bd811e8" sha1="4a86e6a67bcf2833cfea97d702545096a76b2e40" />
<rom name="StakesWinner (Track 16).bin" size="31653216" crc="de6720ea" md5="e8ceb3d63f33aa9ab0fe7b802e207a50" sha1="29d578d955006ecac9e53b005091df0f4c709607" />
<rom name="StakesWinner (Track 17).bin" size="21033936" crc="d18bf5ea" md5="368a3668e2a5d8d6d8e5342bc56bc35e" sha1="9433d94993a1671a53bfc16a2859c5935cf16b4d" />
<rom name="StakesWinner (Track 18).bin" size="24968832" crc="f1c28cdb" md5="1020c6328c898b86d87cb39ec8f0fd8f" sha1="7a8791e72f6d65bfbeb1a153fc6582c3ead3d93d" />
<rom name="StakesWinner (Track 19).bin" size="16591008" crc="f798dfad" md5="782573f99cad4d583e4b031859424669" sha1="648fcd5c5683a54da9e6f2b9c1b4aa1969574534" />
<rom name="StakesWinner (Track 20).bin" size="15831312" crc="7d86d75e" md5="e89acf4273f8239d2864ca96add204fc" sha1="40b30d6ba9f0e7ce708364c876ecf3d7e29eae5f" />
<rom name="StakesWinner (Track 21).bin" size="16000656" crc="166b4076" md5="434ac0617d3b2ad66182824c4cd546c6" sha1="9aa2bf35b33c6ea4c3d725d0eea09e49293ef302" />
<rom name="StakesWinner (Track 22).bin" size="15222144" crc="0b4cb41c" md5="68cf3da531753c90e572710215de3a12" sha1="2745e29f91ae748bbd5808886b4203d961a3760a" />
<rom name="StakesWinner (Track 23).bin" size="25222848" crc="9b984e57" md5="dba0b03e7294a4b0a2ff01ba0db2c701" sha1="acd6d773d31a99585c4126b450a42ffdc4438255" />
<rom name="StakesWinner (Track 24).bin" size="43323840" crc="670c9c8e" md5="24afc571099d553677c7df11e724814a" sha1="3a6a5ecb685e10104b66435d044dd83703155f22" />
<rom name="StakesWinner (Track 25).bin" size="6237504" crc="68cea68d" md5="55038ea14045e4a6b9446712ccb1662b" sha1="5cf9db4b2e4577ea02962687fb6ce2b861bd4159" />
<rom name="StakesWinner (Track 26).bin" size="5376672" crc="37595070" md5="f9b28fb2e96de39d1c25f37d8725adf7" sha1="03ca68108aa30b67beb6e33e7ceadd38e01b9c7d" />
<rom name="StakesWinner (Track 27).bin" size="39868752" crc="f5493352" md5="1f209671a3a9520e14c4db8a48bd1b49" sha1="7e0c03690482601fbe1dac39bd0dfb5933676699" />

Logs: https://mega.nz/#!FB5UjS6Z!RCNJHOKnUkgE … QuUEq4K72A