*Note: Wing Commander III matches the existing dump marked as Europe, but this is the USA region release.

Logs: Advanced Dungeons and Dragons - Slayer

Title: Advanced Dungeons and Dragons - Slayer
System: Panasonic 3DO Interactive Multiplayer
Media Type: CD-ROM
Category: Games
Region: USA
Languages: English
Ringcode Information:
    Mastering Ring: Allied Record Company B1369 CE 02500-2.1 R71
    Toolstamp or Mastering Code: ARC *M1 S2
Barcode: 790561025009
Error Count: 0
Comments: Sold as 3DO Action Pack Game Bundle
Edition/Release: Original

Cuesheet:

CATALOG 0000000000000
FILE "Advanced Dungeons and Dragons - Slayer (3DO Action Pack) (USA).bin" BINARY
  TRACK 01 MODE1/2352
    INDEX 01 00:00:00

Write Offset: 222

DAT:

<rom name="Advanced Dungeons and Dragons - Slayer (3DO Action Pack) (USA).bin" size="355956384" crc="041de279" md5="0691734de3689cac01bc984ee8409e61" sha1="a7fbb2e74d226410aea05c5f61380fb09252573e" />

Logs: Ballz - The Director's Cut

Title: Ballz - The Director's Cut
System: Panasonic 3DO Interactive Multiplayer
Media Type: CD-ROM
Category: Games
Region: USA
Languages: English
Disc Serial: FZ-SW0004
Ringcode Information:
    Mastering Ring: FZSW0004 R1J JVC IFPI L239
    Toolstamp or Mastering Code: M1S3
Error Count: 0
Edition/Release: Original

Cuesheet:

CATALOG 0000000000000
FILE "Ballz - The Director's Cut (USA).bin" BINARY
  TRACK 01 MODE1/2352
    INDEX 01 00:00:00

Write Offset: 222

DAT:

<rom name="Ballz - The Director's Cut (USA).bin" size="361972800" crc="02bf47f5" md5="6fd4db5ab01fc7972d5c0ef52880e672" sha1="daff1378200564794ca6561abfe66056f2709698" />

Logs: BrainDead 13 (Disc 1)

Title: BrainDead 13
Disc Number / Letter: Disc 1
System: Panasonic 3DO Interactive Multiplayer
Media Type: CD-ROM
Category: Games
Region: USA
Languages: English
Ringcode Information:
    Mastering Ring: DH 65028.1 SRCR##01
    Toolstamp or Mastering Code: M1S3
Barcode: 092667650285
Error Count: 0

Edition/Release: Original


Cuesheet:

CATALOG 0000000000000
FILE "BrainDead 13 (USA) (Disc 1).bin" BINARY
  TRACK 01 MODE1/2352
    INDEX 01 00:00:00

Write Offset: 222

DAT:

<rom name="BrainDead 13 (USA) (Disc 1).bin" size="771413664" crc="939a863c" md5="575dd343076bca267b1dc3f3ed2d76f1" sha1="6e7c6a74c574941ae471500f7f1c70a47517f53a" />

Logs: BrainDead 13 (Disc 2)

Title: BrainDead 13
Disc Number / Letter: Disc 2
System: Panasonic 3DO Interactive Multiplayer
Media Type: CD-ROM
Category: Games
Region: USA
Languages: English
Ringcode Information:
    Mastering Ring: DH 65028.2 SRCR=01
    Mould SID Code: IFPI 2 U3 Q
    Toolstamp or Mastering Code: M1S2
Barcode: 092667650285
Error Count: 0
Edition/Release: Original

Cuesheet:

FILE "BrainDead 13 (USA) (Disc 2).bin" BINARY
  TRACK 01 MODE1/2352
    INDEX 01 00:00:00
    INDEX 02 47:47:15

Write Offset: 0

DAT:

<rom name="BrainDead 13 (USA) (Disc 2).bin" size="506832480" crc="747f1ca8" md5="204d700defbc5f65cc078ac89d1a6794" sha1="981dbcc139e7cc275c213cd027797fb9a15fcad4" />

Logs: Dragon's Lair

Title: Dragon's Lair
System: Panasonic 3DO Interactive Multiplayer
Media Type: CD-ROM
Category: Games
Region: USA
Languages: English
Ringcode Information:
    Mastering Ring: Allied Record Company B1354 DH 65003-2 RE1 R72
    Toolstamp or Mastering Code: ARC *M1 S2
Barcode: 790561025009
Error Count: 0
Comments: Sold as 3DO Action Pack Game Bundle
Edition/Release: Original

Cuesheet:

CATALOG 0000000000000
FILE "Dragon's Lair (3DO Action Pack) (USA).bin" BINARY
  TRACK 01 MODE1/2352
    INDEX 01 00:00:00

Write Offset: 222

DAT:

<rom name="Dragon's Lair (3DO Action Pack) (USA).bin" size="241903200" crc="86df003f" md5="b594b1139f792200068bb9a7a78686bb" sha1="e442268056949583abe1d02222facafbe6f1e41d" />

Logs: Family Feud

Title: Family Feud
System: Panasonic 3DO Interactive Multiplayer
Media Type: CD-ROM
Category: Games
Region: USA
Languages: English
Ringcode Information:
    Mastering Ring: FAMILYFEUD R1J <tab> MFD BY JVC
    Additional Mould: IFPI4111
    Toolstamp or Mastering Code: 21
Barcode: 043948006864
Error Count: 0

Edition/Release: Original

Cuesheet:

CATALOG 0000000000000
FILE "Family Feud (USA).bin" BINARY
  TRACK 01 MODE1/2352
    INDEX 01 00:00:00

Write Offset: -954

DAT:

<rom name="Family Feud (USA).bin" size="506479680" crc="84301052" md5="4e8388326b343f1f86bbcf43229e7796" sha1="8a833c82b048566f26d33146b44db6254e8d08f2" />

Logs: FIFA International Soccer [Not For Resale]

Title: FIFA International Soccer
System: Panasonic 3DO Interactive Multiplayer
Media Type: CD-ROM
Category: Games
Region: USA
Languages: English
Disc Serial: 7385
Ringcode Information:
    Mastering Ring: Allied Record Company B326 CC 738507-2 R70
    Toolstamp or Mastering Code: ARC *M1 S8
Error Count: 0
Comments: Marked as 'Not For Resale'
Edition/Release: Original

Cuesheet:

CATALOG 0000000000000
FILE "FIFA International Soccer (USA) (Not For Resale).bin" BINARY
  TRACK 01 MODE1/2352
    INDEX 01 00:00:00

Write Offset: 222

DAT:

<rom name="FIFA International Soccer (USA) (Not For Resale).bin" size="711550560" crc="9bd2a7e9" md5="2f61e24a3999ef4b2f144d89d9db8225" sha1="96317ed4b8ca331a8372a394bc87c766542dc769" />

Logs: Gex

Title: Gex
System: Panasonic 3DO Interactive Multiplayer
Media Type: CD-ROM
Category: Games
Region: USA
Languages: English
Disc Serial: 61060-C
Ringcode Information:
    Mastering Ring: 3DRM-1277190 1
    Mastering SID Code: IFPI L330
    Toolstamp or Mastering Code: (REQUIRED, IF EXISTS)
Error Count: 0
Edition/Release: Original

Cuesheet:

FILE "Gex (USA).bin" BINARY
  TRACK 01 MODE1/2352
    INDEX 01 00:00:00

Write Offset: 2

DAT:

<rom name="Gex (USA).bin" size="464331840" crc="97c7a820" md5="d37e7929c6302b116352d0db85b5a982" sha1="586626a1d35bda93208b9801424c74353860e065" />

Logs: It's A Bird's Life

Title: It's A Bird's Life
System: Panasonic 3DO Interactive Multiplayer
Media Type: CD-ROM
Category: Games
Region: USA
Languages: English
Ringcode Information:
    Mastering Ring: BX00066 SRCR**01
    Toolstamp or Mastering Code: M1S2
Barcode: 751347420104
Error Count: 0
Comments: ISBN 0-9696446-1-2
Edition/Release: Original

Cuesheet:

CATALOG 0000000000000
FILE "It's A Bird's Life (USA).bin" BINARY
  TRACK 01 MODE1/2352
    INDEX 01 00:00:00

Write Offset: 0

DAT:

<rom name="It's A Bird's Life (USA).bin" size="404125344" crc="9b29dd4b" md5="d5019c6d0666a2be0ae537b59f7b86c5" sha1="46331607319db6127beb900de49ecaa7480c298d" />

Logs: Road and Track Presents - The Need For Speed

Title: Road and Track Presents - The Need For Speed
System: Panasonic 3DO Interactive Multiplayer
Media Type: CD-ROM
Category: Games
Region: USA
Languages: English
Disc Serial: 7355
Ringcode Information:
    Mastering Ring: Allied Record Company A1115 CC 735507-2 R70
    Toolstamp or Mastering Code: ARC *M1 S5

Error Count: 0

Edition/Release: Original

Cuesheet:

CATALOG 0000000000000
FILE "Road and Track Presents - The Need For Speed (USA).bin" BINARY
  TRACK 01 MODE1/2352
    INDEX 01 00:00:00

Write Offset: 222

DAT:

<rom name="Road and Track Presents - The Need For Speed (USA).bin" size="771408960" crc="d7afff02" md5="b213789b67a3368207a2ebf2c222847a" sha1="d0e83eabd8347fa9ad693017167e4639bbf624ad" />

Logs: Sample This!

Title: Sample This!
System: Panasonic 3DO Interactive Multiplayer
Media Type: CD-ROM
Category: Games
Region: USA
Languages: English
Disc Serial: 61340-C
Ringcode Information:
    Mastering Ring: 61340 R1J <tab> MFD BY JVC
    Toolstamp or Mastering Code: 11
Barcode: 765979613407
Error Count: 0
Comments: Marked as 'Not For Resale'
Edition/Release: Original

Cuesheet:

CATALOG 0000000000000
FILE "Sample This! (USA).bin" BINARY
  TRACK 01 MODE1/2352
    INDEX 01 00:00:00

Write Offset: -954

DAT:

<rom name="Sample This! (USA).bin" size="650986560" crc="434ce384" md5="3707ef593cfa692be61fc81bbd153606" sha1="4b671a6827cc038e1890ab130952c74f44b71403" />

Logs: Samurai Shodown

Title: Samurai Shodown
System: Panasonic 3DO Interactive Multiplayer
Media Type: CD-ROM
Category: Games
Region: USA
Languages: English
Disc Serial: 60020-C
Ringcode Information:
    Mastering Ring: 60020 R2J <tab> MFD BY JVC
    Toolstamp or Mastering Code: 11
Barcode: 765979600209
Error Count: 0
Edition/Release: Original

Cuesheet:

CATALOG 0000000000000
FILE "Samurai Shodown (USA).bin" BINARY
  TRACK 01 MODE1/2352
    INDEX 01 00:00:00

Write Offset: -954

DAT:

<rom name="Samurai Shodown (USA).bin" size="572712000" crc="44a871b5" md5="b0a0bf31f20b8a1fc45d2ea552c94540" sha1="74d1c853b76f82b90c391738aac0879e90146507" />

Logs: Shanghai - Triple Threat

Title: Shanghai - Triple Threat
System: Panasonic 3DO Interactive Multiplayer
Media Type: CD-ROM
Category: Games
Region: USA
Languages: English
Ringcode Information:
    Mastering Ring: TRIPLETHREAT R1J <tab> MFD BY JVC
    Toolstamp or Mastering Code: 12
Barcode: 047875110526
Error Count: 0
Edition/Release: Original

Cuesheet:

CATALOG 0000000000000
FILE "Shanghai - Triple Threat (USA).bin" BINARY
  TRACK 01 MODE1/2352
    INDEX 01 00:00:00

Write Offset: -954

DAT:

<rom name="Shanghai - Triple Threat (USA).bin" size="121128000" crc="6f52c892" md5="6cdc0627b30858420d9cdff1fceacb98" sha1="23334e04329637dfec2151aa1f2dd077fba69677" />

Logs: Shockwave 2 - Beyond The Gate (Disc 1)

Title: Shockwave 2 - Beyond The Gate
Disc Number / Letter: Disc 1
System: Panasonic 3DO Interactive Multiplayer
Media Type: CD-ROM
Category: Games
Region: USA
Languages: English
Disc Serial: 755007
Ringcode Information:
    Mastering Ring: CC 755007.1 SRCR##01
    Toolstamp or Mastering Code: M1S1
Barcode: 014633075502
Error Count: 0
Comments: ISBN 0-7845-0493-8
Edition/Release: Original

Cuesheet:

CATALOG 0000000000000
FILE "Shockwave 2 - Beyond The Gate (USA) (Disc 1).bin" BINARY
  TRACK 01 MODE1/2352
    INDEX 01 00:00:00

Write Offset: 222

DAT:

<rom name="Shockwave 2 - Beyond The Gate (USA) (Disc 1).bin" size="753350304" crc="4bc2fc9e" md5="f92f2384ab97b6408a767ec42ca943e5" sha1="6c721692986f2bdfd2a36dab946c50e4c74a153f" />

Logs: Shockwave 2 - Beyond The Gate (Disc 2)

Title: Shockwave 2 - Beyond The Gate
Disc Number / Letter: Disc 2
System: Panasonic 3DO Interactive Multiplayer
Media Type: CD-ROM
Category: Games
Region: USA
Languages: English
Disc Serial: 755017
Ringcode Information:
    Mastering Ring: CC 755007.2 SRCR##01
    Toolstamp or Mastering Code: M1S1
Barcode: 014633075502
Error Count: 0
Comments: ISBN 0-7845-0493-8
Edition/Release: Original

Cuesheet:

CATALOG 0000000000000
FILE "Shockwave 2 - Beyond The Gate (USA) (Disc 2).bin" BINARY
  TRACK 01 MODE1/2352
    INDEX 01 00:00:00

Write Offset: 222

DAT:

<rom name="Shockwave 2 - Beyond The Gate (USA) (Disc 2).bin" size="753350304" crc="d07deadd" md5="d7e35dc0024bbb5009ad3311c26d650b" sha1="f0a88faa9fac54dffec659a8535b469a6ba8681d" />

Logs: Soccer Kid

Title: Soccer Kid
System: Panasonic 3DO Interactive Multiplayer
Media Type: CD-ROM
Category: Games
Region: USA
Languages: English
Ringcode Information:
    Mastering Ring: Allied Record Company B1355 CE 00942-2 RE1 R72
    Toolstamp or Mastering Code: ARC *M1 S2
Barcode: 790561025009
Error Count: 0
Comments: Sold as 3DO Action Pack Game Bundle
Edition/Release: Original

Cuesheet:

CATALOG 0000000000000
FILE "Soccer Kid (3DO Action Pack) (USA).bin" BINARY
  TRACK 01 MODE1/2352
    INDEX 01 00:00:00

Write Offset: 222

DAT:

<rom name="Soccer Kid (3DO Action Pack) (USA).bin" size="639297120" crc="f4a86e6b" md5="d34622a71188b615ed6223b8cdcef61f" sha1="0699f55b96d2a10b518af6dec4f285287ec6537f" />

Logs: Space Ace

Title: Space Ace
System: Panasonic 3DO Interactive Multiplayer
Media Type: CD-ROM
Category: Games
Region: USA
Languages: English
Ringcode Information:
    Mastering Ring: DH 65008 RE-1 SRCR##01
    Toolstamp or Mastering Code: M1S1
Barcode: 092667650087
Error Count: 0
Edition/Release: Original

Cuesheet:

CATALOG 0000000000000
FILE "Space Ace (USA).bin" BINARY
  TRACK 01 MODE1/2352
    INDEX 01 00:00:00

Write Offset: 222

DAT:

<rom name="Space Ace (USA).bin" size="494790240" crc="2946d2ce" md5="c10d0465afc9531c4eea4683dafb024f" sha1="5128ae797c2d293176ecbbe5bfc6e34104b7a88b" />

Logs: Space Pirates

Title: Space Pirates
System: Panasonic 3DO Interactive Multiplayer
Media Type: CD-ROM
Category: Games
Region: USA
Languages: English
Ringcode Information:
    Mastering Ring: Allied Record Company A1508 CP 000203-2 R72
    Toolstamp or Mastering Code: ARC *M1 S2
Barcode: 767861000203
Error Count: 0
Edition/Release: Original

Cuesheet:

CATALOG 0000000000000
FILE "Space Pirates (USA).bin" BINARY
  TRACK 01 MODE1/2352
    INDEX 01 00:00:00

Write Offset: 222

DAT:

<rom name="Space Pirates (USA).bin" size="715593648" crc="2c4b31d1" md5="421df4da29692a31be15c6965482e27a" sha1="8532ae19f3bd243211dc346034ab194701ff3c36" />

Logs: The 3DO Interactive Sampler #3

Title: The 3DO Interactive Sampler #3
System: Panasonic 3DO Interactive Multiplayer
Media Type: CD-ROM
Category: Games
Region: USA
Languages: English
Ringcode Information:
    Mastering Ring: Allied Record Company B810 CE 01843-2 R70
    Toolstamp or Mastering Code: ARC *M1 S3
Error Count: 0
Edition/Release: Original

Cuesheet:

CATALOG 0000000000000
FILE "The 3DO Interactive Sampler #3 (USA).bin" BINARY
  TRACK 01 MODE1/2352
    INDEX 01 00:00:00

Write Offset: 222

DAT:

<rom name="The 3DO Interactive Sampler #3 (USA).bin" size="723592800" crc="6a4468ff" md5="868b4a50bfa4f0d2419b820383f4f259" sha1="992186d48bd82660734ee09d4ed6df755781a69c" />

Logs: Twisted The Game Show

Title: Twisted The Game Show
System: Panasonic 3DO Interactive Multiplayer
Media Type: CD-ROM
Category: Games
Region: USA
Languages: English
Disc Serial: 7308
Ringcode Information:
    Mastering Ring: Allied Record Company A983 CC 730807-2 R73
    Toolstamp or Mastering Code: ARC *M1 S1
Barcode: 014633073089
Error Count: 0
Comments: ISBN 0-7845-0145-9
Edition/Release: Original

Cuesheet:

CATALOG 0000000000000
FILE "Twisted The Game Show (USA).bin" BINARY
  TRACK 01 MODE1/2352
    INDEX 01 00:00:00

Write Offset: 222

DAT:

<rom name="Twisted The Game Show (USA).bin" size="746976384" crc="2cc6e83b" md5="01d0d86a66797a5a48ff227b6b4b0391" sha1="f9ccedc3d4fda12e38794d8eb6c7f5d1d47d5028" />

Logs: Wing Commander III (Disc 3)

Title: Wing Commander III
Disc Number / Letter: Disc 3
System: Panasonic 3DO Interactive Multiplayer
Media Type: CD-ROM
Category: Games
Region: USA
Languages: English
Disc Serial: EA 10095 61
Ringcode Information:
    Mastering Ring: Allied Record Company A1477 CC 009507-2.3 R70
    Toolstamp or Mastering Code: ARC *M1 S4

Error Count: 0

Edition/Release: Original

Cuesheet:

CATALOG 0000000000000
FILE "Wing Commander III (USA) (Disc 3).bin" BINARY
  TRACK 01 MODE1/2352
    INDEX 01 00:00:00

Write Offset: 222

DAT:

<rom name="Wing Commander III (USA) (Disc 3).bin" size="771060864" crc="406ff629" md5="ca461cec83df80a1135a4c13e13f5a49" sha1="95f2d6a6e4348c1e21a6bf98ec30b37b8565d59f" />

Logs: Wing Commander III (Disc 4)

Title: Wing Commander III
Disc Number / Letter: Disc 4
System: Panasonic 3DO Interactive Multiplayer
Media Type: CD-ROM
Category: Games
Region: USA
Languages: English
Disc Serial: EA 10095 49
Ringcode Information:
    Mastering Ring: Allied Record Company A1479 CC 009507-2.4 R70
    Toolstamp or Mastering Code: ARC *M1 S4
Error Count: 0
Edition/Release: Original

Cuesheet:

CATALOG 0000000000000
FILE "Wing Commander III (USA) (Disc 4).bin" BINARY
  TRACK 01 MODE1/2352
    INDEX 01 00:00:00

Write Offset: 222

DAT:

<rom name="Wing Commander III (USA) (Disc 4).bin" size="771060864" crc="2979176b" md5="95a1a031aae6b92bc536d88d640e7ae9" sha1="d4af53cb6b8d6e16b152b7692fba2e9a85119681" />

Logs: Zhadnost - The People's Party

Title: Zhadnost - The People's Party
System: Panasonic 3DO Interactive Multiplayer
Media Type: CD-ROM
Category: Games
Region: USA
Languages: English
Ringcode Information:
    Mastering Ring: Allied Record Company A1514 CE 02102-2 R70
    Toolstamp or Mastering Code: ARC *M2 S1
Barcode: 790561021025(Box) 790561015932(CD)
Error Count: 0
Comments: Comes with "Control Pad Free! Inside"
Edition/Release: Original

Cuesheet:

CATALOG 0000000000000
FILE "Zhadnost - The People's Party (USA).bin" BINARY
  TRACK 01 MODE1/2352
    INDEX 01 00:00:00

Write Offset: 222

DAT:

<rom name="Zhadnost - The People's Party (USA).bin" size="746976384" crc="7dec8785" md5="a5730c26cf746b5adbc7d0728ee07a69" sha1="53c35837c612d7d25a6e8da05e9710d61cf83018" />

Title: Ballz - The Director's Cut
System: Panasonic 3DO Interactive Multiplayer
Media Type: CD-ROM
Category: Games
Region: USA
Languages: English
Disc Serial: FZ-SW0004
Ringcode Information:
    Mastering Ring: FZSW0004 R1J JVC IFPI L239
    Toolstamp or Mastering Code: M1S3

Toolstamp is wrong, recheck, please. And check for he mould IFPI.

Title: BrainDead 13
Disc Number / Letter: Disc 2
System: Panasonic 3DO Interactive Multiplayer
Media Type: CD-ROM
Category: Games
Region: USA
Languages: English
Ringcode Information:
    Mastering Ring: DH 65028.2 SRCR=01
    Mould SID Code: IFPI 2 U3 Q

Any chance for the photo of that Mould IFPI?

Title: Road and Track Presents - The Need For Speed
System: Panasonic 3DO Interactive Multiplayer
Media Type: CD-ROM
Category: Games
Region: USA
Languages: English
Disc Serial: 7355
Ringcode Information:
    Mastering Ring: Allied Record Company A1115 CC 735507-2 R70
    Toolstamp or Mastering Code: ARC *M1 S5

"ARC *M1 S5" or "ARC    *M1    S5"?

Title: FIFA International Soccer
System: Panasonic 3DO Interactive Multiplayer
Media Type: CD-ROM
Category: Games
Region: USA
Languages: English
Disc Serial: 7385
Ringcode Information:
    Mastering Ring: Allied Record Company B326 CC 738507-2 R70
    Toolstamp or Mastering Code: ARC *M1 S8

Same question regarding the toolstamp.

Title: Family Feud
System: Panasonic 3DO Interactive Multiplayer
Media Type: CD-ROM
Category: Games
Region: USA
Languages: English
Ringcode Information:
    Mastering Ring: FAMILYFEUD R1J <tab> MFD BY JVC
    Additional Mould: IFPI4111
    Toolstamp or Mastering Code: 21

21, not 12?

Thanks for the heads up in discord, I hadn't noticed your reply until yesterday. This should correct everything.

Title: Ballz - The Director's Cut
Toolstamp is wrong, recheck, please. And check for he mould IFPI.

Sorry about that, not sure what I did, it actually is:
    Toolstamp or Mastering Code: 11
    Mould SID Code: IFPI 4111

Title: BrainDead 13  Disc Number / Letter: Disc 2
Any chance for the photo of that Mould IFPI?

If this photo is not clear enough, let me know, and I will see what I can do.
Photo

Title: Road and Track Presents - The Need For Speed
"ARC *M1 S5" or "ARC    *M1    S5"?

I believe I am correct in the spacing, but I defer to you with the below photo.
Photo

Title: FIFA International Soccer
Same question regarding the toolstamp.

Should be "ARC    *M1    S8" I believe.
Photo

Title: Family Feud
21, not 12?

Correct.
Photo