USA version of Grid Runner.

Logs: https://www.dropbox.com/s/yeo0j046q02af … ER.7z?dl=0

Title: Grid Runner
Disc Number / Letter: 
Disc Title: 
System: Sega Saturn
Media Type: CD-ROM
Category: Games
Region: USA
Languages: English
Disc Serial: T-7025H 
Build Date: 19960906
Ringcode Information:
    Mastering Ring: *2S*   T-7025H
    Mastering SID Code: IFPI L433
    Mould SID Code: 
    Additional Mould: 
    Toolstamp or Mastering Code: A1
Barcode: 0 522145 89007 7
Error Count: 0
Comments: (OPTIONAL)
Contents: (OPTIONAL)
Version: V1.000
Edition/Release: Original
Header:

0000 : 53 45 47 41 20 53 45 47 41 53 41 54 55 52 4E 20   SEGA SEGASATURN 
0010 : 53 45 47 41 20 54 50 20 54 2D 37 30 20 20 20 20   SEGA TP T-70    
0020 : 54 2D 37 30 32 35 48 20 20 20 56 31 2E 30 30 30   T-7025H   V1.000
0030 : 31 39 39 36 30 39 30 36 43 44 2D 31 2F 31 20 20   19960906CD-1/1  
0040 : 55 20 20 20 20 20 20 20 20 20 20 20 20 20 20 20   U               
0050 : 4A 41 54 20 20 20 20 20 20 20 20 20 20 20 20 20   JAT             
0060 : 47 72 69 64 72 75 6E 6E 65 72 20 20 20 20 20 20   Gridrunner      
0070 : 20 20 20 20 20 20 20 20 20 20 20 20 20 20 20 20                   
0080 : 20 20 20 20 20 20 20 20 20 20 20 20 20 20 20 20                   
0090 : 20 20 20 20 20 20 20 20 20 20 20 20 20 20 20 20                   
00A0 : 20 20 20 20 20 20 20 20 20 20 20 20 20 20 20 20                   
00B0 : 20 20 20 20 20 20 20 20 20 20 20 20 20 20 20 20                   
00C0 : 20 20 20 20 20 20 20 20 20 20 20 20 20 20 20 20                   
00D0 : 00 00 00 00 00 00 00 00 00 00 00 00 00 00 00 00                   
00E0 : 00 00 0E 20 00 00 00 00 00 00 00 00 00 00 00 00                  
00F0 : 06 00 40 00 00 00 00 00 00 00 00 00 00 00 00 00    @             

Primary Volume Descriptor (PVD):

0320 : 52 F1 72 02 1F 21 51 F2  71 FF 1F 12 21 18 8B F0   R.r..!Q.q...!...
0330 : 7F 14 00 0B 00 09 00 90  06 00 2D 80 06 00 2D 84   ..........-...-.
0340 : 06 00 2D 7C 25 F8 00 00  7F E0 D3 15 1F 37 E3 00   ..-|%........7..
0350 : 1F 33 E3 00 1F 32 D3 13  1F 31 E3 00 2F 32 A0 12   .3...2...1../2..
0360 : 00 09 52 F7 72 04 1F 27  72 FC 63 22 52 F3 32 3C   ..R.r..'r.c"R.2<
0370 : 1F 23 53 F2 23 2A 1F 32  53 F2 51 F1 31 38 1F 11   .#S.#*.2S.Q.18..

Cuesheet:

FILE "GRIDRUNNER (Track 01).bin" BINARY
  TRACK 01 MODE1/2352
    INDEX 01 00:00:00
FILE "GRIDRUNNER (Track 02).bin" BINARY
  TRACK 02 AUDIO
    INDEX 00 00:00:00
    INDEX 01 00:02:00
FILE "GRIDRUNNER (Track 03).bin" BINARY
  TRACK 03 AUDIO
    INDEX 00 00:00:00
    INDEX 01 00:02:00
FILE "GRIDRUNNER (Track 04).bin" BINARY
  TRACK 04 AUDIO
    INDEX 00 00:00:00
    INDEX 01 00:02:00
FILE "GRIDRUNNER (Track 05).bin" BINARY
  TRACK 05 AUDIO
    INDEX 00 00:00:00
    INDEX 01 00:02:00
FILE "GRIDRUNNER (Track 06).bin" BINARY
  TRACK 06 AUDIO
    INDEX 00 00:00:00
    INDEX 01 00:02:00
FILE "GRIDRUNNER (Track 07).bin" BINARY
  TRACK 07 AUDIO
    INDEX 00 00:00:00
    INDEX 01 00:02:00
FILE "GRIDRUNNER (Track 08).bin" BINARY
  TRACK 08 AUDIO
    INDEX 00 00:00:00
    INDEX 01 00:02:00
FILE "GRIDRUNNER (Track 09).bin" BINARY
  TRACK 09 AUDIO
    INDEX 00 00:00:00
    INDEX 01 00:02:00
FILE "GRIDRUNNER (Track 10).bin" BINARY
  TRACK 10 AUDIO
    INDEX 00 00:00:00
    INDEX 01 00:02:00
FILE "GRIDRUNNER (Track 11).bin" BINARY
  TRACK 11 AUDIO
    INDEX 00 00:00:00
    INDEX 01 00:02:00
FILE "GRIDRUNNER (Track 12).bin" BINARY
  TRACK 12 AUDIO
    INDEX 00 00:00:00
    INDEX 01 00:02:00
FILE "GRIDRUNNER (Track 13).bin" BINARY
  TRACK 13 AUDIO
    INDEX 00 00:00:00
    INDEX 01 00:02:00
FILE "GRIDRUNNER (Track 14).bin" BINARY
  TRACK 14 AUDIO
    INDEX 00 00:00:00
    INDEX 01 00:02:00
FILE "GRIDRUNNER (Track 15).bin" BINARY
  TRACK 15 AUDIO
    INDEX 00 00:00:00
    INDEX 01 00:02:00
FILE "GRIDRUNNER (Track 16).bin" BINARY
  TRACK 16 AUDIO
    INDEX 00 00:00:00
    INDEX 01 00:02:00
FILE "GRIDRUNNER (Track 17).bin" BINARY
  TRACK 17 AUDIO
    INDEX 00 00:00:00
    INDEX 01 00:02:00
FILE "GRIDRUNNER (Track 18).bin" BINARY
  TRACK 18 AUDIO
    INDEX 00 00:00:00
    INDEX 01 00:02:00
FILE "GRIDRUNNER (Track 19).bin" BINARY
  TRACK 19 AUDIO
    INDEX 00 00:00:00
    INDEX 01 00:02:00

Write Offset: 588

DAT:

<rom name="GRIDRUNNER (Track 01).bin" size="95771088" crc="43186f79" md5="2528fbc077385ab5465c7df9aff8d396" sha1="461f68a3a341f57fb88f1509731e3fe55c04767d" />
<rom name="GRIDRUNNER (Track 02).bin" size="18385584" crc="49edd9c0" md5="5ff28ee4cac8b3e1bac99c5c64b731a2" sha1="8b0cef7a22892c0d4519f9a13bc8eab617c1b351" />
<rom name="GRIDRUNNER (Track 03).bin" size="9789024" crc="622094de" md5="5131684356609f5f3c7eee9a32fafb7d" sha1="ef994ca9872c304a0b6c3eefa6fda74797172d83" />
<rom name="GRIDRUNNER (Track 04).bin" size="24387888" crc="2ba23b54" md5="b3c59d0dbc532943d95a36c0ff3642e2" sha1="9af9f5f68153da9c40478611133edb48ddc45222" />
<rom name="GRIDRUNNER (Track 05).bin" size="25770864" crc="3c32f19e" md5="bbfd6fc770875b48b10b44cbb0ab82ea" sha1="07edcfcf42d3f2fbfbe15360625b2f6805a563af" />
<rom name="GRIDRUNNER (Track 06).bin" size="26380032" crc="30e89273" md5="dd7a072e44565db0418bec63c0526a19" sha1="3efec48c1371bab2207f4a4e69bb107c9e1211dd" />
<rom name="GRIDRUNNER (Track 07).bin" size="26161296" crc="10b6f0b6" md5="40a4336fc3c4f12bca95be0901e528e6" sha1="03a4b80e4772feecb33de30017974061cc96c435" />
<rom name="GRIDRUNNER (Track 08).bin" size="24858288" crc="7fbe01c2" md5="fbca1b5162d86c06fb99fa8415dfdde0" sha1="f5f37ae95bf83ffff2de08f20257be8c49f9becf" />
<rom name="GRIDRUNNER (Track 09).bin" size="21320880" crc="96ed0104" md5="35f7a04b451dc5f9f98ffb09a95ab42f" sha1="d75cdfaebbb139dbb1bd121a20a0dfac820de563" />
<rom name="GRIDRUNNER (Track 10).bin" size="24616032" crc="bae22b48" md5="efab0397b90ef32890e3707d38fa6d31" sha1="d37630c36142a2ef35c2b0bc6b02e19a2f7521e4" />
<rom name="GRIDRUNNER (Track 11).bin" size="23310672" crc="d87adccc" md5="d024b0dd88ae122224cc17c6998128fc" sha1="06e60ca19d8cac041978bb044d90760e0e3846b2" />
<rom name="GRIDRUNNER (Track 12).bin" size="24006864" crc="9e746311" md5="97dc315565a5b956eb0c9ca8ab5a2171" sha1="5904f82c718ff1b9772f18ce78a922bf5384bf92" />
<rom name="GRIDRUNNER (Track 13).bin" size="24068016" crc="798f70bf" md5="74a0d0fe4279aa3c852c152e3c6e41f4" sha1="51f65b6b8230c833f74c30635cf605d5872f3bc9" />
<rom name="GRIDRUNNER (Track 14).bin" size="26064864" crc="e7af78bf" md5="17daa3c83023b6cffd3adf7cbea2e1eb" sha1="bb64955519623f94199e1b7fb88fb8343970a6dd" />
<rom name="GRIDRUNNER (Track 15).bin" size="24990000" crc="7038ea3d" md5="617158c278adf2fc77bf783976c5db7d" sha1="207e94f3b2842405340c2042c2f35ba625d9063d" />
<rom name="GRIDRUNNER (Track 16).bin" size="21847728" crc="2d699bfd" md5="25973602866b5647d2dd78112449e8dc" sha1="cf309f56c6e2a0def0a8e0f238edbbb5ab1d2e5f" />
<rom name="GRIDRUNNER (Track 17).bin" size="22097040" crc="d06b59c8" md5="2f622f1933ba6069f88c8fb1d122c704" sha1="318ffa1aed7444e97846147d9380a3631b8280f4" />
<rom name="GRIDRUNNER (Track 18).bin" size="25763808" crc="2d9372cf" md5="19605eae924c92ae3ae1f88946732529" sha1="2bf144aebf7a4397344ea2691fb776d29a04d881" />
<rom name="GRIDRUNNER (Track 19).bin" size="21937104" crc="a6c3d33e" md5="f45c1303bc7273abd2d8eec74db307ba" sha1="b1c75a98a734ca7a9de7621e5bb248ef08c8c188" />

Barcode has a typo smile

F1ReB4LL wrote:

Barcode has a typo smile

Whoops. You're right.

0 52145 89007 7 is the correct one.