USA version of Shellshock.

Logs: https://www.dropbox.com/s/uqt4ifn10op3o … CK.7z?dl=0

Title: Shellshock
Disc Number / Letter: 
Disc Title: 
System: Sega Saturn
Media Type: CD-ROM
Category: Games
Region: USA
Languages: English
Disc Serial: T-7901H 
Build Date: 19960410
Ringcode Information:
    Mastering Ring: SATURNT7901H P2H
    Mastering SID Code: IFPI L238
    Mould SID Code: IFPI4111
    Additional Mould: 
    Toolstamp or Mastering Code: 11
Barcode: (OPTIONAL)
Error Count: 0
Comments: (OPTIONAL)
Contents: (OPTIONAL)
Version: V1.000
Edition/Release: Original
Header:

0000 : 53 45 47 41 20 53 45 47 41 53 41 54 55 52 4E 20   SEGA SEGASATURN 
0010 : 53 45 47 41 20 54 50 20 54 2D 37 39 20 20 20 20   SEGA TP T-79    
0020 : 54 2D 37 39 30 31 48 20 20 20 56 31 2E 30 30 30   T-7901H   V1.000
0030 : 31 39 39 36 30 34 31 30 43 44 2D 31 2F 31 20 20   19960410CD-1/1  
0040 : 55 20 20 20 20 20 20 20 20 20 20 20 20 20 20 20   U               
0050 : 4A 54 20 20 20 20 20 20 20 20 20 20 20 20 20 20   JT              
0060 : 53 48 45 4C 4C 53 48 4F 43 4B 20 20 20 20 20 20   SHELLSHOCK      
0070 : 20 20 20 20 20 20 20 20 20 20 20 20 20 20 20 20                   
0080 : 20 20 20 20 20 20 20 20 20 20 20 20 20 20 20 20                   
0090 : 20 20 20 20 20 20 20 20 20 20 20 20 20 20 20 20                   
00A0 : 20 20 20 20 20 20 20 20 20 20 20 20 20 20 20 20                   
00B0 : 20 20 20 20 20 20 20 20 20 20 20 20 20 20 20 20                   
00C0 : 20 20 20 20 20 20 20 20 20 20 20 20 20 20 20 20                   
00D0 : 00 00 00 00 00 00 00 00 00 00 00 00 00 00 00 00                   
00E0 : 00 00 0E 2C 00 00 00 00 00 00 00 00 00 00 00 00     ,            
00F0 : 06 00 40 00 00 00 00 00 00 00 00 00 00 00 00 00    @             

Primary Volume Descriptor (PVD):

0320 : 52 F1 72 02 1F 21 51 F2  71 FF 1F 12 21 18 8B F0   R.r..!Q.q...!...
0330 : 7F 14 00 0B 00 09 00 90  06 00 2D 80 06 00 2D 84   ..........-...-.
0340 : 06 00 2D 7C 25 F8 00 00  7F E0 D3 15 1F 37 E3 00   ..-|%........7..
0350 : 1F 33 E3 00 1F 32 D3 13  1F 31 E3 00 2F 32 A0 12   .3...2...1../2..
0360 : 00 09 52 F7 72 04 1F 27  72 FC 63 22 52 F3 32 3C   ..R.r..'r.c"R.2<
0370 : 1F 23 53 F2 23 2A 1F 32  53 F2 51 F1 31 38 1F 11   .#S.#*.2S.Q.18..

Cuesheet:

CATALOG 0000000000000
FILE "SHELLSHOCK (Track 01).bin" BINARY
  TRACK 01 MODE1/2352
    INDEX 01 00:00:00
FILE "SHELLSHOCK (Track 02).bin" BINARY
  TRACK 02 AUDIO
    INDEX 00 00:00:00
    INDEX 01 00:02:00
FILE "SHELLSHOCK (Track 03).bin" BINARY
  TRACK 03 AUDIO
    INDEX 00 00:00:00
    INDEX 01 00:02:00
FILE "SHELLSHOCK (Track 04).bin" BINARY
  TRACK 04 AUDIO
    INDEX 00 00:00:00
    INDEX 01 00:02:00
FILE "SHELLSHOCK (Track 05).bin" BINARY
  TRACK 05 AUDIO
    INDEX 00 00:00:00
    INDEX 01 00:02:02
FILE "SHELLSHOCK (Track 06).bin" BINARY
  TRACK 06 AUDIO
    INDEX 00 00:00:00
    INDEX 01 00:02:00
FILE "SHELLSHOCK (Track 07).bin" BINARY
  TRACK 07 AUDIO
    INDEX 00 00:00:00
    INDEX 01 00:02:00
FILE "SHELLSHOCK (Track 08).bin" BINARY
  TRACK 08 AUDIO
    INDEX 00 00:00:00
    INDEX 01 00:02:00
FILE "SHELLSHOCK (Track 09).bin" BINARY
  TRACK 09 AUDIO
    INDEX 00 00:00:00
    INDEX 01 00:02:02
FILE "SHELLSHOCK (Track 10).bin" BINARY
  TRACK 10 AUDIO
    INDEX 00 00:00:00
    INDEX 01 00:02:00
FILE "SHELLSHOCK (Track 11).bin" BINARY
  TRACK 11 AUDIO
    INDEX 00 00:00:00
    INDEX 01 00:02:00
FILE "SHELLSHOCK (Track 12).bin" BINARY
  TRACK 12 AUDIO
    INDEX 00 00:00:00
    INDEX 01 00:02:00

Write Offset: 1722

DAT:

<rom name="SHELLSHOCK (Track 01).bin" size="241999632" crc="77e4e9a8" md5="ece67cb896ba15b910aea17f37a89765" sha1="5e7e0e25c18f2e9c502023d62cd7eae11a724756" />
<rom name="SHELLSHOCK (Track 02).bin" size="54310032" crc="a7cfc1b1" md5="4bebc270888e5647618e96c95f10c271" sha1="85d87a2a20915f2f49928a825e0fddd8c0c3f8b7" />
<rom name="SHELLSHOCK (Track 03).bin" size="42498288" crc="2ce2db35" md5="1b9efdce68cc3d0bf24ee0e508857ff2" sha1="bc3975485beb36c5ee064e3571563f6c49ad7d04" />
<rom name="SHELLSHOCK (Track 04).bin" size="38118864" crc="6f2b34d1" md5="99a37509f312f1f37fd93a5d1e7c272c" sha1="6271fb75bb29bf47eab5814c91b14734149fa860" />
<rom name="SHELLSHOCK (Track 05).bin" size="38092992" crc="b9fea58b" md5="b836ff8fd105e81e8d8cb94131e0f202" sha1="3d259a87c5e5134f3feff2333b0f3e8a13a23fb1" />
<rom name="SHELLSHOCK (Track 06).bin" size="43413216" crc="e226d65b" md5="9c1f5412389c78064e30c042ae6ce020" sha1="30279a6edb9fead39636ef2d736de3c9bbea6d3c" />
<rom name="SHELLSHOCK (Track 07).bin" size="27059760" crc="1d6d0841" md5="0021c35773fe8bd209e270fc6e09939a" sha1="84b421b4db80f1e362bf5c1396c3898121f2efa8" />
<rom name="SHELLSHOCK (Track 08).bin" size="17437728" crc="34968e2e" md5="79bab68e4f5fd9096fa41a55580e69b0" sha1="6844b5e894b4efa9d8e916403cb231c91fb0f490" />
<rom name="SHELLSHOCK (Track 09).bin" size="28967232" crc="a9793f15" md5="1df76df928d031fedd0e96fea001fe98" sha1="a17da7d904382ba35dfb0dbec91715d362d839b6" />
<rom name="SHELLSHOCK (Track 10).bin" size="43100400" crc="57d7fbba" md5="7a609a1f17dd14b2972a609c330a4b03" sha1="430353137b3ec931a0f6396b76a42c5f6d4d0c48" />
<rom name="SHELLSHOCK (Track 11).bin" size="28557984" crc="b682ff2d" md5="50f7bc9848cb2a2528d5e626127632da" sha1="0ed580f53dc1800df4894381da35501cd136a163" />
<rom name="SHELLSHOCK (Track 12).bin" size="3062304" crc="1209fcb4" md5="8a941d22cff035569f57639852c2fc52" sha1="615913a2fe1a8b2052915af0709f88be3a73fcf9" />