DICUI 1.10 + DIC (20180630 31122)

Vampire Savior (Japan)
http://redump.org/disc/2626/

all hashes match

dic/subdump logs

Title: Vampire Savior: The Lord of Vampire
Disc Number / Letter: -
Disc Title: -
System: Sega Saturn
Media Type: CD-ROM
Category: Games
Region: Japan
Languages: 
Disc Serial: T-1229G 
Build Date: 1998-02-17
Ringcode Information:
    Mastering Ring: T-1229GP-02216-P1K   V
    Mastering SID Code: IFPI L237
    Mould SID Code: IFPI4011
    Additional Mould: -
    Toolstamp or Mastering Code: 14
Barcode: 
Error Count: 0
Comments: -
Contents: -
Version: V1.000
Edition/Release: Doukonban
Header:

0000 : 53 45 47 41 20 53 45 47 41 53 41 54 55 52 4E 20   SEGA SEGASATURN 
0010 : 53 45 47 41 20 54 50 20 54 2D 31 32 20 20 20 20   SEGA TP T-12    
0020 : 54 2D 31 32 32 39 47 20 20 20 56 31 2E 30 30 30   T-1229G   V1.000
0030 : 31 39 39 38 30 32 31 37 43 44 2D 31 2F 31 20 20   19980217CD-1/1  
0040 : 4A 20 20 20 20 20 20 20 20 20 20 20 20 20 20 20   J               
0050 : 4A 57 20 20 20 20 20 20 20 20 20 20 20 20 20 20   JW              
0060 : 56 41 4D 50 49 52 45 20 53 41 56 49 4F 52 20 20   VAMPIRE SAVIOR  
0070 : 20 20 20 20 20 20 20 20 20 20 20 20 20 20 20 20                   
0080 : 20 20 20 20 20 20 20 20 20 20 20 20 20 20 20 20                   
0090 : 20 20 20 20 20 20 20 20 20 20 20 20 20 20 20 20                   
00A0 : 20 20 20 20 20 20 20 20 20 20 20 20 20 20 20 20                   
00B0 : 20 20 20 20 20 20 20 20 20 20 20 20 20 20 20 20                   
00C0 : 20 20 20 20 20 20 20 20 20 20 20 20 20 20 20 20                   
00D0 : 00 00 00 00 00 00 00 00 00 00 00 00 00 00 00 00   
00E0 : 00 00 10 00 00 00 00 00 00 00 00 00 00 00 00 00   
00F0 : 06 0A 00 00 00 00 00 00 00 00 00 00 00 00 00 00   

Primary Volume Descriptor (PVD):

0320 : 20 20 20 20 20 20 20 20  20 20 20 20 20 31 39 39                199
0330 : 38 30 32 31 37 30 32 33  30 34 38 30 30 14 31 39   8021702304800.19
0340 : 39 38 30 32 31 37 30 32  33 30 34 38 30 30 14 30   98021702304800.0
0350 : 30 30 30 30 30 30 30 30  30 30 30 30 30 30 30 00   000000000000000.
0360 : 30 30 30 30 30 30 30 30  30 30 30 30 30 30 30 30   0000000000000000
0370 : 00 01 00 00 00 00 00 00  00 00 00 00 00 00 00 00   ................

Cuesheet:

CATALOG 0000000000000
FILE "VAMPIRE_SAVIOR (Track 01).bin" BINARY
  TRACK 01 MODE1/2352
    INDEX 01 00:00:00
FILE "VAMPIRE_SAVIOR (Track 02).bin" BINARY
  TRACK 02 AUDIO
    INDEX 00 00:00:00
    INDEX 01 00:02:00
FILE "VAMPIRE_SAVIOR (Track 03).bin" BINARY
  TRACK 03 AUDIO
    INDEX 00 00:00:00
    INDEX 01 00:01:74
FILE "VAMPIRE_SAVIOR (Track 04).bin" BINARY
  TRACK 04 AUDIO
    INDEX 00 00:00:00
    INDEX 01 00:01:74
FILE "VAMPIRE_SAVIOR (Track 05).bin" BINARY
  TRACK 05 AUDIO
    INDEX 00 00:00:00
    INDEX 01 00:01:74
FILE "VAMPIRE_SAVIOR (Track 06).bin" BINARY
  TRACK 06 AUDIO
    INDEX 00 00:00:00
    INDEX 01 00:01:74
FILE "VAMPIRE_SAVIOR (Track 07).bin" BINARY
  TRACK 07 AUDIO
    INDEX 00 00:00:00
    INDEX 01 00:01:74
FILE "VAMPIRE_SAVIOR (Track 08).bin" BINARY
  TRACK 08 AUDIO
    INDEX 00 00:00:00
    INDEX 01 00:01:74
FILE "VAMPIRE_SAVIOR (Track 09).bin" BINARY
  TRACK 09 AUDIO
    INDEX 00 00:00:00
    INDEX 01 00:01:74
FILE "VAMPIRE_SAVIOR (Track 10).bin" BINARY
  TRACK 10 AUDIO
    INDEX 00 00:00:00
    INDEX 01 00:01:74
FILE "VAMPIRE_SAVIOR (Track 11).bin" BINARY
  TRACK 11 AUDIO
    INDEX 00 00:00:00
    INDEX 01 00:01:74
FILE "VAMPIRE_SAVIOR (Track 12).bin" BINARY
  TRACK 12 AUDIO
    INDEX 00 00:00:00
    INDEX 01 00:01:74
FILE "VAMPIRE_SAVIOR (Track 13).bin" BINARY
  TRACK 13 AUDIO
    INDEX 00 00:00:00
    INDEX 01 00:01:74
FILE "VAMPIRE_SAVIOR (Track 14).bin" BINARY
  TRACK 14 AUDIO
    INDEX 00 00:00:00
    INDEX 01 00:01:74
FILE "VAMPIRE_SAVIOR (Track 15).bin" BINARY
  TRACK 15 AUDIO
    INDEX 00 00:00:00
    INDEX 01 00:01:74
FILE "VAMPIRE_SAVIOR (Track 16).bin" BINARY
  TRACK 16 AUDIO
    INDEX 00 00:00:00
    INDEX 01 00:01:74
FILE "VAMPIRE_SAVIOR (Track 17).bin" BINARY
  TRACK 17 AUDIO
    INDEX 00 00:00:00
    INDEX 01 00:01:74
FILE "VAMPIRE_SAVIOR (Track 18).bin" BINARY
  TRACK 18 AUDIO
    INDEX 00 00:00:00
    INDEX 01 00:01:74
FILE "VAMPIRE_SAVIOR (Track 19).bin" BINARY
  TRACK 19 AUDIO
    INDEX 00 00:00:00
    INDEX 01 00:01:74

Write Offset: 684

DAT:

<rom name="VAMPIRE_SAVIOR (Track 01).bin" size="234393264" crc="5b3be220" md5="3fe84905f90abe7c079f0376b6dab73e" sha1="02cab915f4036051a5575db178f194d5dfb7b509" />
<rom name="VAMPIRE_SAVIOR (Track 02).bin" size="1832208" crc="80d7ffb4" md5="ebe9365caf5be49330634ec4bdb18c01" sha1="b21477e48dc15284ddf20767e2be081ffe1af258" />
<rom name="VAMPIRE_SAVIOR (Track 03).bin" size="28896672" crc="cd741288" md5="e84805ea63973a1ce0f475307ed682ff" sha1="2de8df9b77dbeef500f56817b979629a6ef3113d" />
<rom name="VAMPIRE_SAVIOR (Track 04).bin" size="11752944" crc="11a8c907" md5="f5f477fbb3d2244d31d9ae36a33f0c74" sha1="64f5c9d7bc6b318723f93df64ecf732f19e6efa5" />
<rom name="VAMPIRE_SAVIOR (Track 05).bin" size="20697600" crc="682750ee" md5="812c4533171f7432dc3e454f60fe9151" sha1="be6ea6b4110a55ae0a9b4679055bc524af56242f" />
<rom name="VAMPIRE_SAVIOR (Track 06).bin" size="22313424" crc="a01c3f49" md5="ae4546939e1934efa41a5ab286aa9c14" sha1="426e59e3db628b31d5f5674f2441c87301751ea4" />
<rom name="VAMPIRE_SAVIOR (Track 07).bin" size="17233104" crc="c387c25f" md5="798aa818908deb33bbb2b0eca041cc37" sha1="a9a33798806e4fc7a9314aeda3e52800f2c8cdbb" />
<rom name="VAMPIRE_SAVIOR (Track 08).bin" size="19340496" crc="e43cd2f7" md5="db6defb64c14f05866d2a5318339d944" sha1="6038dfebdce1a0ac72ad35e92c2ecacb3c05ffc2" />
<rom name="VAMPIRE_SAVIOR (Track 09).bin" size="22179360" crc="57697307" md5="2be6be18a906c202d8fb9fef55a95936" sha1="00305a0f77e0c3c03448a18987ac889d49bcfce9" />
<rom name="VAMPIRE_SAVIOR (Track 10).bin" size="31114608" crc="ae918a13" md5="0c3bf66e2ec3d83cd9660755295f6545" sha1="8cf466150c39179b0bf44511b72e40f8e4950f59" />
<rom name="VAMPIRE_SAVIOR (Track 11).bin" size="19954368" crc="f86f84bb" md5="6cdcd6677d46d5bf855738545eb09a57" sha1="64dc924913a90ebb3701ebf8ba293f247a644718" />
<rom name="VAMPIRE_SAVIOR (Track 12).bin" size="27692448" crc="d28e50c4" md5="382fa63abc9beee4f5f946740f2914d7" sha1="36e6cceb1e843584d74f648b9bb20c97a72519d1" />
<rom name="VAMPIRE_SAVIOR (Track 13).bin" size="22280496" crc="4501e536" md5="55a70a5daf47ff9333e478f7da6185cf" sha1="bd18146e6ea1090448c81a09a9a3e242259eb4d1" />
<rom name="VAMPIRE_SAVIOR (Track 14).bin" size="24237360" crc="c8a15c27" md5="cfc68038d94470d2427bffaccaab847b" sha1="b19015d54b13ec765de8f5723d15858a7fe000de" />
<rom name="VAMPIRE_SAVIOR (Track 15).bin" size="32685744" crc="ddc27699" md5="fa8f0fddfd9f025cd2b47ced6175701b" sha1="dc138248223f11cd414f99d571d4fa8db7c170df" />
<rom name="VAMPIRE_SAVIOR (Track 16).bin" size="26883360" crc="a9f4d80b" md5="472a5830df874c0cb4f8ea0639ec0963" sha1="80d876d257c4469176ede98b0dd34d065e897438" />
<rom name="VAMPIRE_SAVIOR (Track 17).bin" size="7046592" crc="03f9f5da" md5="1d7f10db4356e3ce44a4ba5cca23531d" sha1="3926cf7e54300b450f598e93d00579468d53c5da" />
<rom name="VAMPIRE_SAVIOR (Track 18).bin" size="8088528" crc="f48a5d22" md5="b26d8b03e731240ed12d12df682eeb34" sha1="3878793c37bbde7229849340890151928a0c7bf7" />
<rom name="VAMPIRE_SAVIOR (Track 19).bin" size="5640096" crc="3ca1e621" md5="040b5e163135d41487c3bd799b487455" sha1="525818e357a5fd1e7b6219a324988640d30e2d15" />