PC Games 02/99 (Bonus CD-ROM)
dump logs

Serial:
GB 9902

Mould SID Code:
IFPI 8700

Primary Volume Descriptor (PVD):
0320 : 20 20 20 20 20 20 20 20  20 20 20 20 20 31 39 39                199
0330 : 38 31 32 31 31 31 31 31  30 32 39 37 32 3B 31 39   8121111102972;19
0340 : 39 38 31 32 31 31 31 31  31 31 31 39 34 33 C9 00   98121111111943..
0350 : 00 00 00 00 00 00 00 00  00 00 00 00 00 00 00 00   ................
0360 : 00 00 00 00 00 00 00 00  00 00 00 00 00 00 00 00   ................
0370 : 00 01 00 00 00 00 00 00  00 00 00 00 00 00 00 00   ................



PC Games 07/99
dump logs

Serial:
GD 9907

Mould SID Code:
IFPI 6824

Primary Volume Descriptor (PVD):
0320 : 20 20 20 20 20 20 20 20  20 20 20 20 20 31 39 39                199
0330 : 39 30 35 31 34 31 32 31  37 34 34 35 33 3B 31 39   9051412174453;19
0340 : 39 39 30 35 31 34 31 33  34 34 35 31 34 34 C9 00   99051413445144..
0350 : 00 00 00 00 00 00 00 00  00 00 00 00 00 00 00 00   ................
0360 : 00 00 00 00 00 00 00 00  00 00 00 00 00 00 00 00   ................
0370 : 00 01 00 00 00 00 00 00  00 00 00 00 00 00 00 00   ................

Cuesheet:
CATALOG 0000000000000
FILE "PCG0799 (Track 1).bin" BINARY
  TRACK 01 MODE1/2352
    INDEX 01 00:00:00
FILE "PCG0799 (Track 2).bin" BINARY
  TRACK 02 AUDIO
    INDEX 00 00:00:00
    INDEX 01 00:02:00
   

   
PC Games 07/99 (Bonus CD-ROM)
dump logs

Serial:
GB 9907

Mould SID Code:
IFPI 8711

Primary Volume Descriptor (PVD):
0320 : 20 20 20 20 20 20 20 20  20 20 20 20 20 31 39 39                199
0330 : 39 30 35 31 34 31 31 30  39 32 34 32 31 3B 31 39   9051411092421;19
0340 : 39 39 30 35 31 34 31 31  30 39 34 35 37 39 C9 00   99051411094579..
0350 : 00 00 00 00 00 00 00 00  00 00 00 00 00 00 00 00   ................
0360 : 00 00 00 00 00 00 00 00  00 00 00 00 00 00 00 00   ................
0370 : 00 01 00 00 00 00 00 00  00 00 00 00 00 00 00 00   ................



PC Games 08/99
dump logs

Serial:
GD 9908

Mould SID Code:
IFPI 6805

Primary Volume Descriptor (PVD):
0320 : 20 20 20 20 20 20 20 20  20 20 20 20 20 31 39 39                199
0330 : 39 30 36 32 31 30 39 35  34 34 32 31 38 B9 31 39   9062109544218.19
0340 : 39 39 30 36 32 31 31 30  30 31 31 33 34 35 DD 00   99062110011345..
0350 : 00 00 00 00 00 00 00 00  00 00 00 00 00 00 00 00   ................
0360 : 00 00 00 00 00 00 00 00  00 00 00 00 00 00 00 00   ................
0370 : 00 01 00 00 00 00 00 00  00 00 00 00 00 00 00 00   ................

Cuesheet:
CATALOG 0000000000000
FILE "Pcg0899.bin" BINARY
  TRACK 01 MODE1/2352
    INDEX 01 00:00:00

   

PC Games 08/99 (Bonus CD-ROM)
dump logs

Serial:
GB 9908

Mould SID Code:
IFPI 8706

Primary Volume Descriptor (PVD):
0320 : 20 20 20 20 20 20 20 20  20 20 20 20 20 31 39 39                199
0330 : 39 30 36 31 38 31 34 35  38 33 34 39 31 9D 31 39   9061814583491.19
0340 : 39 39 30 36 31 38 31 34  35 38 35 35 35 38 C9 00   99061814585558..
0350 : 00 00 00 00 00 00 00 00  00 00 00 00 00 00 00 00   ................
0360 : 00 00 00 00 00 00 00 00  00 00 00 00 00 00 00 00   ................
0370 : 00 01 00 00 00 00 00 00  00 00 00 00 00 00 00 00   ................


PC Games 09/99 (Bonus CD-ROM)
dump logs

Serial:
GB 9909

Mastering Ring:
DISCTRONICS    S PCGBONUS 0999    02

Mastering SID Code:
IFPI L501

Mould SID Code:
IFPI 8721

Write Offset:
-12

Primary Volume Descriptor (PVD):
0320 : 20 20 20 20 20 20 20 20  20 20 20 20 20 31 39 39                199
0330 : 39 30 37 31 36 31 36 31  34 33 33 37 31 9D 31 39   9071616143371.19
0340 : 39 39 30 37 31 36 31 36  31 36 30 36 32 30 C9 00   99071616160620..
0350 : 00 00 00 00 00 00 00 00  00 00 00 00 00 00 00 00   ................
0360 : 00 00 00 00 00 00 00 00  00 00 00 00 00 00 00 00   ................
0370 : 00 01 00 00 00 00 00 00  00 00 00 00 00 00 00 00   ................



PC Games 10/99
dump logs

Serial:
GD 9910

Write Offset:
-12

Primary Volume Descriptor (PVD):
0320 : 20 20 20 20 20 20 20 20  20 20 20 20 20 31 39 39                199
0330 : 39 30 38 31 36 31 35 32  38 30 34 36 36 9D 31 39   9081615280466.19
0340 : 39 39 30 38 31 36 31 35  32 38 35 33 33 32 C9 00   99081615285332..
0350 : 00 00 00 00 00 00 00 00  00 00 00 00 00 00 00 00   ................
0360 : 00 00 00 00 00 00 00 00  00 00 00 00 00 00 00 00   ................
0370 : 00 01 00 00 00 00 00 00  00 00 00 00 00 00 00 00   ................



PC Games 10/99 (Bonus CD-ROM)
dump logs

Title:
PC Games 10/99 (Bonus CD-ROM)

Foreign title:
Dethkarz

Serial:
GB 9910

Mastering Ring:
DISCTRONICS    S PCGBONUS 1099    01

Mastering SID Code:
IFPI L502

Mould SID Code:
IFPI 8713

Primary Volume Descriptor (PVD):
0320 : 20 20 20 20 20 20 20 20  20 20 20 20 20 31 39 39                199
0330 : 39 30 38 31 36 31 35 32  38 30 34 36 36 9D 31 39   9081615280466.19
0340 : 39 39 30 38 31 36 31 35  32 38 35 33 33 32 C9 00   99081615285332..
0350 : 00 00 00 00 00 00 00 00  00 00 00 00 00 00 00 00   ................
0360 : 00 00 00 00 00 00 00 00  00 00 00 00 00 00 00 00   ................
0370 : 00 01 00 00 00 00 00 00  00 00 00 00 00 00 00 00   ................



PC Games 11/99 (Bonus CD-ROM)
dump logs

Serial:
GB 9911

Mastering Ring:
DISCTRONICS    S PCGBONUS 1199    01

Mastering SID Code:
IFPI L503

Mould SID Code:
IFPI 8720

Write Offset:
-12

Primary Volume Descriptor (PVD):
0320 : 20 20 20 20 20 20 20 20  20 20 20 20 20 31 39 39                199
0330 : 39 30 39 31 35 31 33 34  35 31 37 34 38 04 31 39   9091513451748.19
0340 : 39 39 30 39 31 35 31 33  34 39 31 31 39 32 C9 00   99091513491192..
0350 : 00 00 00 00 00 00 00 00  00 00 00 00 00 00 00 00   ................
0360 : 00 00 00 00 00 00 00 00  00 00 00 00 00 00 00 00   ................
0370 : 00 01 00 00 00 00 00 00  00 00 00 00 00 00 00 00   ................



PC Games 12/99 (Disc 2)
dump logs

Serial:
GDB 9912

Mastering Ring:
DISCTRONICS    S PCGBONUS 1299    01

Mastering SID Code:
IFPI L502

Mould SID Code:
IFPI 8710

Write Offset:

Primary Volume Descriptor (PVD):
0320 : 20 20 20 20 20 20 20 20  20 20 20 20 20 31 39 39                199
0330 : 39 31 30 31 34 31 36 31  36 34 39 34 37 08 31 39   9101416164947.19
0340 : 39 39 31 30 31 34 31 36  31 38 30 32 33 38 FC 00   99101416180238..
0350 : 00 00 00 00 00 00 00 00  00 00 00 00 00 00 00 00   ................
0360 : 00 00 00 00 00 00 00 00  00 00 00 00 00 00 00 00   ................
0370 : 00 01 00 00 00 00 00 00  00 00 00 00 00 00 00 00   ................