Here's a good one for the crowd: a "Rainbow Disc", specifically, the first one that used this particular mix of formats. This is technically an Audio CD (and might end up there), but it contains Audio, PC/Mac, CD-i, and VCD in one disc. I felt it was worth preserving, so here's the submission info (because I'm not entirely sure where this should go):

Title: The Cranberries: Doors and Windows
Disc Number / Letter: 
Disc Title: 
System: Rainbow Disc
Media Type: CD-ROM
Category: Multimedia
Region: World
Languages: English
Disc Serial: Catalog No. 31069130-2, Catalog No. 310691081-2
Ringcode Information:
    Mastering Ring: L384    9614-08120809    B51108-14
    Mastering SID Code: L384
    Mould SID Code: IFPI 6100
    Additional Mould: 
    Toolstamp or Mastering Code: M1S3
Barcode: 7 31069 10302 8
ISBN: 
Error Count: 4
Comments:
    Windows 3.1/DOS 6.2
    "This disc is a "rainbow" disc created by Philips Media, using Master.
    It contains data in the following formats:
    CD-ROM XA (yellow book), CD-i (green book), VideoCD (white book), and CD-DA (red book)."
Contents:
    Cranberries Multimedia Presentation (Windows, Macintosh, CD-i, VCD)
Version: 
Edition/Release: Original
Primary Volume Descriptor (PVD):

0320 : 20 20 20 20 20 20 20 20  20 20 20 20 20 31 39 39                199
0330 : 35 30 37 32 37 31 36 31  33 31 34 30 30 00 31 39   5072716131400.19
0340 : 39 35 30 37 32 37 31 36  31 33 31 34 30 30 00 30   95072716131400.0
0350 : 30 30 30 30 30 30 30 30  30 30 30 30 30 30 30 00   000000000000000.
0360 : 30 30 30 30 30 30 30 30  30 30 30 30 30 30 30 30   0000000000000000
0370 : 00 01 00 00 00 00 00 00  00 00 00 00 00 00 00 00   ................

Copy Protection: None detected

Cuesheet:

FILE "CD (Track 1).bin" BINARY
  TRACK 01 MODE2/2352
    INDEX 01 00:00:00
FILE "CD (Track 2).bin" BINARY
  TRACK 02 AUDIO
    INDEX 00 00:00:00
    INDEX 01 00:02:73
FILE "CD (Track 3).bin" BINARY
  TRACK 03 AUDIO
    INDEX 00 00:00:00
    INDEX 01 00:01:74
FILE "CD (Track 4).bin" BINARY
  TRACK 04 AUDIO
    INDEX 00 00:00:00
    INDEX 01 00:01:74
FILE "CD (Track 5).bin" BINARY
  TRACK 05 AUDIO
    INDEX 00 00:00:00
    INDEX 01 00:01:74
FILE "CD (Track 6).bin" BINARY
  TRACK 06 AUDIO
    INDEX 00 00:00:00
    INDEX 01 00:01:74

Write Offset: -590

DAT:

<rom name="CD (Track 1).bin" size="553665504" crc="a8c857be" md5="5e0599a3c5c83db88e6d3d6d4769ddd2" sha1="c058a0248d14b82c2e231e3ba5a532b6b7dde11e" />
<rom name="CD (Track 2).bin" size="44528064" crc="9b3ee400" md5="968c0a1128d96a5adb0c315e0f1e502a" sha1="c9653ecb81b44d11d7f98d5643835125c3dc9810" />
<rom name="CD (Track 3).bin" size="50516256" crc="97907712" md5="10c38c03c982874030b0a89304a1207b" sha1="070db31ea4bde09c4c7b7f4e3d7f3c2df1b65117" />
<rom name="CD (Track 4).bin" size="28405104" crc="bd59e8a0" md5="52fe6e5e9d17049aff8d9d301490b4f3" sha1="821ef93c56e10f3c00a0db5bc4e40d0c0611584b" />
<rom name="CD (Track 5).bin" size="37269792" crc="d6d3d298" md5="9d8b3dfaf63cfecbe56b7ae1db141ac6" sha1="105476abf5fa3dc1f117f729db49499f332db9d6" />
<rom name="CD (Track 6).bin" size="55996416" crc="293a1cf7" md5="22a8917ef322a8b760f66da84c0dacd6" sha1="593cb3c37521e17acfc8a0161f76df015e711478" />

Ah, I have a gorelord4e's dump taken years ago, but never got all the needed metadata from him. Any chance to see the full logs? And a TOC dump would be welcome.

darksabre76 wrote:

This is technically an Audio CD (and might end up there), but it contains Audio, PC/Mac, CD-i, and VCD in one disc.

It was released as a CD-i disc and the "Compact Disc Interactive" is the only format logo on it.

>It was released as a CD-i disc and the "Compact Disc Interactive" is the only format logo on it.

Is this really a good way to designate format? Per darksabre in the Discord conversation: it contains data in the following formats:
CD-ROM XA (yellow book), CD-i (green book), VideoCD (white book), and CD-DA (red book).

It has PC application on it making it worthy of being in redump in the first place, but most people bought it to use it as an Audio CD (which I believe is why the Star Wars bonus discs were classed as DVD-Video, not Xbox).

user7 wrote:

Is this really a good way to designate format?

For the only disc of its kind - yes.

user7 wrote:

It has PC application on it making it worthy of being in redump in the first place, but most people bought it to use it as an Audio CD.

It's a CD-i Bridge format disc and the section with PC/Mac/CD-i players is covered by the Green Book standard. Photo CD and Video CD discs are the examples of CD-i Bridge discs (check any disc from the Photo CD section - all of them have a Windows and a CD-i application to play the content of the disc). This one should be either added as a CD-i disc or the Rainbow CD section is needed, but due to the CD-i Interactive logo it's better to simply add it as a CD-i Multimedia disc.

user7 wrote:

which I believe is why the Star Wars bonus discs were classed as DVD-Video, not Xbox.

If those are in XBGD format rather than normal DVD-Video, then it's not correct.

5 (edited by darksabre76 2018-07-19 18:26:45)

I had attached all of the dumping logs to the original post. Whatever you need should be in there.

Edit: Erm... guess they didn't upload. Here's an external link: https://mega.nz/#!0I13hZzR!gYKX_0bPvwEz … XxdY_g4odY

Bump?

F1ReB4LL wrote:

And a TOC dump would be welcome.

Any chance? "DiscImageCreator audio E: TOC-PREGAP 4 -5000 -1100" should do it.

F1ReB4LL wrote:
user7 wrote:

which I believe is why the Star Wars bonus discs were classed as DVD-Video, not Xbox.

If those are in XBGD format rather than normal DVD-Video, then it's not correct.

They are not in XBGD. They are DVD Video discs with VIDEO_TS and AUDIO_TS folders, an .exe for some bonus features (nothing game related) and an .xbe for the game demo.

TOC

Post's attachments

TOC-PREGAP.zip 500.82 kb, 4 downloads since 2018-07-24 

You don't have the permssions to download the attachments of this post.

So... was the pregap data helpful to anyone?

Okay, one more time, was it even worth posting the data? Will this disc get added?

It's somewhat hard to add due to the mastering issues, PMed you in IRC.

Mastering SID Code: L384

No "IFPI" word, as I understand?