1 (edited by AmiSapphire 2018-07-07 02:19:39)

Topic: [IBM-PC] 4x Verify

Info marked blue are not yet in the database. Exception is Atari Anniversary Edition, as it's the same exact data dump with different physical packaging.


Atari Anniversary Edition
http://redump.org/disc/43046/

Game title: Atari Anniversary Edition
Edition: Rerelease (See Notes)
Media: CD
Barcode: 6 71196 02007 5
log files: https://mega.nz/#!OSZzlAJA!_ijkZ-DtVfMH … eUOkLcOJRM
Serial number: 02007 (CD also has previous Product # 04-22660CD serial, curiously)
Ring code info:
  Mastering Code (laser branding/etched): 7/31/04<tab>02007 09
  Mastering SID Code: IFPI L794
  Mould SID Code - IFPI 2D46

CUEsheet:

FILE "atari-anniversary-edition-verify-760a2.bin" BINARY
  TRACK 01 MODE1/2352
    INDEX 01 00:00:00

DAT:

<rom name="atari-anniversary-edition-verify-760a2.bin" size="753319728" crc="26783bd3" md5="bd9a14cfda3eba7b0e951df283896930" sha1="57875c9e09d3abfbd7587d3ef739ee604bc94c2a"/>

Notes: The CD I have may be a rerelease. Data dump does match the original in the database, but... Box has year 2004 copyrights, references Windows XP among the compatible operating systems (original has referenced only 95/98/ME), and the CD itself has 7/31/04 as part of the mastering code.

--

Pac-Man: Adventures in Time
http://redump.org/disc/11635/

log files: https://mega.nz/#!rfABFQgZ!wPY_7ODk29oq … 5njGcEu1vM
Ring code info:
  Mastering Code (laser branding/etched): 99179<tab>+ +<tab>A3234-01
  Mastering SID Code: IFPI L028
  Toolstamp or Mastering Code (engraved/stamped): A15
  Mould SID Code - IFPI 1018

CUEsheet:

FILE "pacman-ait-verify-760a2.bin" BINARY
  TRACK 01 MODE1/2352
    INDEX 01 00:00:00

DAT:

<rom name="pacman-ait-verify-760a2.bin" size="530227824" crc="bf8645cb" md5="6e09025bbc18b0abb4cf6ca7eeb97bec" sha1="1fbe2b4de2b716716dae7e3ef110f66495ea4d89"/>

--

American Girls Premiere Disk 1
http://redump.org/disc/43150/

log files: https://mega.nz/#!6eIzyIaD!5HebmF5nFNua … 8OrYK88DsA
Ring code info:
  Mastering Code (laser branding/etched): AGC744AE-CD1<tab>+ +<tab>80629-01
  Mastering SID Code: IFPI L028
  Mould SID Code - IFPI 1047

Metadata: CATALOG 0000000000000

CUEsheet:

CATALOG 0000000000000
FILE "agp-original-disc1-verify-760a2.bin" BINARY
  TRACK 01 MODE1/2352
    INDEX 01 00:00:00

DAT:

<rom name="agp-original-disc1-verify-760a2.bin" size="614664624" crc="935528ed" md5="26816ad68c63cc29abc956f018ed1db2" sha1="89b74fb1d1191ffcb4ff9c3a08098a044fc5f106"/>

--

American Girls Premiere Disk 2
http://redump.org/disc/43149/

log files: https://mega.nz/#!XaQFjCqZ!iqAlz2uCEUZ_ … chTrlxD4iM
Ring code info:
  Mastering Code (laser branding/etched): AGC744AE-CD2<tab>+ +<tab>80585-01
  Mastering SID Code: IFPI L028
  Mould SID Code - IFPI 1047

Metadata: CATALOG 0000000000000

CUEsheet:

CATALOG 0000000000000
FILE "agp-original-disc2-verify-760a2.bin" BINARY
  TRACK 01 MODE1/2352
    INDEX 01 00:00:00

DAT:

<rom name="agp-original-disc2-verify-760a2.bin" size="727287792" crc="2967f0ed" md5="dd60419d3a58e8f5431570c95ddfcfd7" sha1="afa781e1b6c3da19a4efbd456b7dd3a81892b380"/>
Plextor UltraPLeX PX-40TSi (Offset +676)
2x Plextor PX-760A (Offset +30) - One May 2006 and One June 2006