Topic: [FIXED][IBM PC] 1x Nexy dump fix

To nobody's great surprise, I found a Nexy dump where Track 1 and 2 don't match, but all the other audio tracks do match.

Also, my dump has  "CATALOG 0000000000000" in the cue.


Game Title: MechWarrior 2 - Ghost Bear's Legacy (USA)
Link: http://redump.org/disc/10597/
Category: Add-Ons
Region: USA
Languages: English

Serial:CDD-3124-04-1

Mastering Ring Code:CDD3124 R2H
Mastering SID Code: IFPI L238
Mould SID Code: IFPI 4111
Toolstamp: 11
Additional Mould Text: None


Version: Can't tell. I don't own a DOS copy of Mechwarrior 2: 31st Century combat (Although I just bought one on ebay. The serial matches another Nexy-only dump).
Edition: This looks like an original.
Case Barcode: Not on jewel case.

PVD:

0320 : 20 20 20 20 20 20 20 20  20 20 20 20 20 30 30 30                000
0330 : 30 30 30 30 30 30 30 30  30 30 30 30 30 00 30 30   0000000000000.00
0340 : 30 30 30 30 30 30 30 30  30 30 30 30 30 30 00 30   00000000000000.0
0350 : 30 30 30 30 30 30 30 30  30 30 30 30 30 30 30 00   000000000000000.
0360 : 30 30 30 30 30 30 30 30  30 30 30 30 30 30 30 30   0000000000000000
0370 : 00 01 00 00 00 00 00 00  00 00 00 00 00 00 00 00   ................


ClrMamePro data:
<rom name="MechWarrior 2 - Ghost Bear's Legacy (USA) (Track 01).bin" size="192471216" crc="40521814" md5="dc013a77f4ab8aeacf7a5b8a536ef3bc" sha1="f5de23d7f11b3769c5460ae0fb1311aa11379346" />
    <rom name="MechWarrior 2 - Ghost Bear's Legacy (USA) (Track 02).bin" size="22367520" crc="c59894c0" md5="f1042aee448784070250da945db378cc" sha1="436914151d24f87f3c4597433521c89b33a35a3f" />
    <rom name="MechWarrior 2 - Ghost Bear's Legacy (USA) (Track 03).bin" size="46021584" crc="e1ed5b8f" md5="35595e33877329b9e4218c42f476a962" sha1="a7b7ff7aec3998c98186f4f0950fc1baef315f0d" />
    <rom name="MechWarrior 2 - Ghost Bear's Legacy (USA) (Track 04).bin" size="39530064" crc="70773805" md5="35da3ddb3383452618577e9d6f7e95fb" sha1="8c36ca9f2bc107c057bbd7b1a5bf8305007a5405" />
    <rom name="MechWarrior 2 - Ghost Bear's Legacy (USA) (Track 05).bin" size="22026480" crc="9163623d" md5="f48ccd512fa1592f5aeeb8e232f3630d" sha1="400b68071cf57d70a12e302f7a93db3070134511" />
    <rom name="MechWarrior 2 - Ghost Bear's Legacy (USA) (Track 06).bin" size="21805392" crc="66107819" md5="e5b0ddfc99504eaf22d84ac1ba8374f0" sha1="7415ce1b0f6f53a682186ca4d37f0f454d18c3a2" />
    <rom name="MechWarrior 2 - Ghost Bear's Legacy (USA) (Track 07).bin" size="25641504" crc="be72c24b" md5="e7f372ff1b0ee311ff6da257d531ca0a" sha1="6c93fca5389edc3c1bee25037e4300e58bcb7d0a" />
    <rom name="MechWarrior 2 - Ghost Bear's Legacy (USA) (Track 08).bin" size="22412208" crc="55c36675" md5="db53fa29487fd5ebe84b39a6f8d975c9" sha1="bb6f624b516d055190595a173bd4a88a372bdcfd" />
    <rom name="MechWarrior 2 - Ghost Bear's Legacy (USA) (Track 09).bin" size="21791280" crc="582f10ea" md5="1d829ee525a867ae64900d4a5812dcc1" sha1="44fdb6a1917f6479d7f1fa90b811f045e9107e45" />
    <rom name="MechWarrior 2 - Ghost Bear's Legacy (USA) (Track 10).bin" size="23096640" crc="2f9304e7" md5="96d2842fe30019c50de029614d4dd4a1" sha1="bda3814ddab89eec63c29e536214412a6036a348" />
    <rom name="MechWarrior 2 - Ghost Bear's Legacy (USA) (Track 11).bin" size="24068016" crc="f5ca2cca" md5="15411c4216e7f42e4a13439e30b1c257" sha1="6dcd9d70119fe5ff1a8639c2ea15b70807754a8e" />
    <rom name="MechWarrior 2 - Ghost Bear's Legacy (USA) (Track 12).bin" size="24881808" crc="72c5adfe" md5="a8afea5180a2e9a59b763cd36a8e0fd8" sha1="50ffa67ffa0e47689594fc14f5b17915d8fd0f8c" />
    <rom name="MechWarrior 2 - Ghost Bear's Legacy (USA) (Track 13).bin" size="24310272" crc="e5ae4143" md5="8cb99446185742885558cf10de12c194" sha1="3964257768776642525a220cb0388f628e22e5bc" />
    <rom name="MechWarrior 2 - Ghost Bear's Legacy (USA) (Track 14).bin" size="23903376" crc="5dc5b54c" md5="74360a8f5857aa16e42ce28f95ce6309" sha1="0ad96422103066d67cc565ed652e514966bfe4e8" />
    <rom name="MechWarrior 2 - Ghost Bear's Legacy (USA) (Track 15).bin" size="19380480" crc="a73cdcd8" md5="c43dd2a2b8fdbab5aeb531a37cebf79d" sha1="e12f1f41636862534150512fdc9c2852208c91de" />
    <rom name="MechWarrior 2 - Ghost Bear's Legacy (USA) (Track 16).bin" size="25232256" crc="80e89725" md5="4014be619836260fbcc3818ed1d6102c" sha1="fc73f7c75b7115bddd502a26b70782545d65e89f" />
    <rom name="MechWarrior 2 - Ghost Bear's Legacy (USA) (Track 17).bin" size="18265632" crc="ce30055c" md5="5611d3c8aab0cb91aa067fe859fdc4d1" sha1="01f726480ce230ab2b90d7676719500d02a29c06" />
    <rom name="MechWarrior 2 - Ghost Bear's Legacy (USA) (Track 18).bin" size="23665824" crc="da385c28" md5="e0f438986f2d18732705bc7ebbe34972" sha1="b42b8a7d5230291668e3c64e0a703709c82bf511" />
    <rom name="MechWarrior 2 - Ghost Bear's Legacy (USA) (Track 19).bin" size="18524352" crc="d119e79e" md5="2698f046b20316e932ebdeb8d975587f" sha1="f7757e90af6802223d776020dd9a87b7718e02dc" />
    <rom name="MechWarrior 2 - Ghost Bear's Legacy (USA) (Track 20).bin" size="20290704" crc="7347708f" md5="2d024e85587a0001685f0c3cf4366d82" sha1="beb8f1133600aa23649e51ea4a10486394883fb8" />
    <rom name="MechWarrior 2 - Ghost Bear's Legacy (USA) (Track 21).bin" size="13199424" crc="c9f276ab" md5="c4b9dff0c0ad21296f7c050413a42353" sha1="b3429aaacd6ec9e4b20a0e36f9dbdd5259bf18d5" />

Cuesheet:

CATALOG 0000000000000
FILE "MechWarrior 2 - Ghost Bear's Legacy (USA) (Track 01).bin" BINARY
  TRACK 01 MODE1/2352
    INDEX 01 00:00:00
FILE "MechWarrior 2 - Ghost Bear's Legacy (USA) (Track 02).bin" BINARY
  TRACK 02 AUDIO
    INDEX 00 00:00:00
    INDEX 01 00:01:73
FILE "MechWarrior 2 - Ghost Bear's Legacy (USA) (Track 03).bin" BINARY
  TRACK 03 AUDIO
    INDEX 00 00:00:00
    INDEX 01 00:01:73
FILE "MechWarrior 2 - Ghost Bear's Legacy (USA) (Track 04).bin" BINARY
  TRACK 04 AUDIO
    INDEX 00 00:00:00
    INDEX 01 00:01:73
FILE "MechWarrior 2 - Ghost Bear's Legacy (USA) (Track 05).bin" BINARY
  TRACK 05 AUDIO
    INDEX 00 00:00:00
    INDEX 01 00:01:73
FILE "MechWarrior 2 - Ghost Bear's Legacy (USA) (Track 06).bin" BINARY
  TRACK 06 AUDIO
    INDEX 00 00:00:00
    INDEX 01 00:01:73
FILE "MechWarrior 2 - Ghost Bear's Legacy (USA) (Track 07).bin" BINARY
  TRACK 07 AUDIO
    INDEX 00 00:00:00
    INDEX 01 00:01:73
FILE "MechWarrior 2 - Ghost Bear's Legacy (USA) (Track 08).bin" BINARY
  TRACK 08 AUDIO
    INDEX 00 00:00:00
    INDEX 01 00:01:73
FILE "MechWarrior 2 - Ghost Bear's Legacy (USA) (Track 09).bin" BINARY
  TRACK 09 AUDIO
    INDEX 00 00:00:00
    INDEX 01 00:01:73
FILE "MechWarrior 2 - Ghost Bear's Legacy (USA) (Track 10).bin" BINARY
  TRACK 10 AUDIO
    INDEX 00 00:00:00
    INDEX 01 00:01:73
FILE "MechWarrior 2 - Ghost Bear's Legacy (USA) (Track 11).bin" BINARY
  TRACK 11 AUDIO
    INDEX 00 00:00:00
    INDEX 01 00:01:73
FILE "MechWarrior 2 - Ghost Bear's Legacy (USA) (Track 12).bin" BINARY
  TRACK 12 AUDIO
    INDEX 00 00:00:00
    INDEX 01 00:01:73
FILE "MechWarrior 2 - Ghost Bear's Legacy (USA) (Track 13).bin" BINARY
  TRACK 13 AUDIO
    INDEX 00 00:00:00
    INDEX 01 00:01:73
FILE "MechWarrior 2 - Ghost Bear's Legacy (USA) (Track 14).bin" BINARY
  TRACK 14 AUDIO
    INDEX 00 00:00:00
    INDEX 01 00:01:73
FILE "MechWarrior 2 - Ghost Bear's Legacy (USA) (Track 15).bin" BINARY
  TRACK 15 AUDIO
    INDEX 00 00:00:00
    INDEX 01 00:01:73
FILE "MechWarrior 2 - Ghost Bear's Legacy (USA) (Track 16).bin" BINARY
  TRACK 16 AUDIO
    INDEX 00 00:00:00
    INDEX 01 00:01:73
FILE "MechWarrior 2 - Ghost Bear's Legacy (USA) (Track 17).bin" BINARY
  TRACK 17 AUDIO
    INDEX 00 00:00:00
    INDEX 01 00:01:73
FILE "MechWarrior 2 - Ghost Bear's Legacy (USA) (Track 18).bin" BINARY
  TRACK 18 AUDIO
    INDEX 00 00:00:00
    INDEX 01 00:01:73
FILE "MechWarrior 2 - Ghost Bear's Legacy (USA) (Track 19).bin" BINARY
  TRACK 19 AUDIO
    INDEX 00 00:00:00
    INDEX 01 00:01:73
FILE "MechWarrior 2 - Ghost Bear's Legacy (USA) (Track 20).bin" BINARY
  TRACK 20 AUDIO
    INDEX 00 00:00:00
    INDEX 01 00:01:73
FILE "MechWarrior 2 - Ghost Bear's Legacy (USA) (Track 21).bin" BINARY
  TRACK 21 AUDIO
    INDEX 00 00:00:00
    INDEX 01 00:01:73


Write Offset: +222

Comments:
This version works in DOS, if you care about putting it in the database.
Track 1 and 2 don't match what is in the database.

Re: [FIXED][IBM PC] 1x Nexy dump fix

cdmage error count for Track1? Contents of last sector?

Re: [FIXED][IBM PC] 1x Nexy dump fix

....This is embarassing, but my dump has two corrupted sectors according to CDMage, while Nexy's dump doesn't have any corrupted sectors.

I didn't notice this until now, but the _EdcEcc.txt files says

"[ERROR] Number of sector(s) where sync(0x00 - 0x0c) is zero: 2
    Sector: 81831, 81832, "

When I saw this, I thought to myself "That's going to be in the area between audio and data sectors, isn't it?"

I was right.
"LBA[081830, 0x13fa6], MSF[18:13:05], mode 1
LBA[081831, 0x13fa7], MSF[00:00:00], zero sync
LBA[081832, 0x13fa8], MSF[00:00:00], zero sync
LBA[081833, 0x13fa9], audio"

I don't know what to do now. Is my disc scratched? Is my drive bad? Is DIC bad?

I should probably post logs, shouldn't I?

https://mega.nz/#!O1YDzaDb!Eujl49EwEXoW … FJur0Yo_dI

Re: [FIXED][IBM PC] 1x Nexy dump fix

It's fine.. just audio sectors moved into the data track. Just wanted to be sure.

5 (edited by ajshell1 2017-12-27 18:51:25)

Re: [FIXED][IBM PC] 1x Nexy dump fix

Jackal wrote:

It's fine.. just audio sectors moved into the data track. Just wanted to be sure.

Moved? By whom? The developers who didn't know how to make a mixed-mode CD? The factory that printed the discs wrong? My Plextor? DIC?

So, if I'm reading this right, the dump WITH the errors is the GOOD dump? That's madness!

Re: [FIXED][IBM PC] 1x Nexy dump fix

There's 2 empty audio sectors at the end of the data track. The 01:72 Track02 is indicative of that. Yes, it's bad mastering.