1 (edited by antimatter 2017-11-30 10:42:47)

Topic: [ADDED][PS2] 9 Verification's + 1 more verification

http://redump.org/disc/24888/
Game Name: Star Trek: Conquest
Region: Europe
Languages: English, German
Game ID: SLES-55048
EXE: SLES_550.48
EXE date: 2007-10-09
Version: 1.01
Edition: Original
Barcode: 0 093155 130395

Comments:
Language selection via Language Selector

Mastering Code (Ringcode): Sony DADC<TAB>A0100904641-A511<TAB>17
Mastering SID Code: IFPI L557
Toolstamp: A01
Mould SID Code: IFPI 945X

Size: 1284538368
CRC-32: 794CE91A
MD5: 5FB8FC5DD7138524E029B02EB25AFC32
SHA-1: 027CD5C449D902C98FEE51C1B87520EF72195A86
------------------------------------------------------------------
http://redump.org/disc/23156/
Game Name: Star Trek: Conquest
Region: USA
Languages: English
Game ID: SLUS 21630
EXE: SLUS_216.30
EXE date: 2007-10-09
Version: 1.01
Edition: Original
Barcode: 0 93155 12620 6

Mastering Code (Ringcode): PDSS-028605A1<TAB>1
Mastering SID Code: IFPI L332
Toolstamp: A05
Mould SID Code: IFPI QW40

Mould SID Code: IFPI QW41

Size: 1284571136
CRC-32: 95005215
MD5: E278F2D7C5D8E7FCB45767B85A7088C3
SHA-1: FCD49CBBBA261A726108EDA64076D6A1F01AC48B
-------------------------------------------------------------------
http://redump.org/disc/19566/
Game Title: Star Trek: Encounters
Media: CD
Region: Europe
Languages: English, French, German
Edition: Original
Serial: SLES-54554
EXE: SLES_545.54
EXE date: 2006-10-26
Version: 1.01
Errors count: 0
Number of tracks: 1
Write offset: -12
Barcode: 3 307210 241429

Comments:
Language selection via Language Selector

Track(s):

<game name="Star Trek - Encounters (Europe) (En,Fr,De)">
  <category>Games</category>
  <description>Star Trek - Encounters (Europe) (En,Fr,De)</description>
  <rom name="Star Trek - Encounters (Europe) (En,Fr,De).bin" size="591958416" crc="41796175" md5="e427db33e158ce4a2a61809605e32797" sha1="d33005ce35727912c958dfd75b18c19f4d18b0f7" />
</game>

cuesheet:

FILE "Star Trek - Encounters (Europe) (En,Fr,De).bin" BINARY
  TRACK 01 MODE2/2352
    INDEX 01 00:00:00

Mastering Code (laser branded/etched): Sony DADC<TAB>A0100755298-0101<TAB>18
Mastering SID Code: IFPI L558
Toolstamp or Mastering Code (engraved/stamped): A2
Mould SID Code: IFPI 946R
-----------------------------------------------------------------------------
http://redump.org/disc/17946/
Game Title: Star Trek: Encounters
Media: CD
Region: USA
Languages: English
Edition: Original
Serial: SLUS 21396
EXE: SLUS_213.96
EXE date: 2006-08-29
Version: 1.01
Errors count: 0
Number of tracks: 1
Write offset: -12
Barcode: 0 93155 12050 1

Track(s):

<game name="Star Trek - Encounters (USA)">
  <category>Games</category>
  <description>Star Trek - Encounters (USA)</description>
  <rom name="Star Trek - Encounters (USA).bin" size="591767904" crc="092044db" md5="70cc50b86fbb0fa940412b9ff1317f6a" sha1="9cd8b226b96be783269ed50daf8ba8cae591a497" />
</game>

cuesheet:

FILE "Star Trek - Encounters (USA).bin" BINARY
  TRACK 01 MODE2/2352
    INDEX 01 00:00:00

Mastering Code (laser branded/etched): PTRM-007585<TAB>1
Mastering SID Code: IFPI L327
Toolstamp or Mastering Code (engraved/stamped): A10
Mould SID Code: IFPI 507B
----------------------------------------------------------------
http://redump.org/disc/4652/
Game Name: Star Trek: Shattered Universe
Region: Europe
Languages: English, French, German
Game ID: SLES-52209
EXE: SLES_522.09
EXE date: 2004-02-12
Version: 1.03
Edition: Original
Barcode: 5 026555 302159

Comments:
Language selection via Language Selector

Mastering Code (Ringcode): Sony DADC<TAB>A0100522629-A511<TAB>17
Mastering SID Code: IFPI L557
Toolstamp: A3
Mould SID Code: IFPI 944X

Size: 1936588800
CRC-32: 2C589595
MD5: 74AD55F03C78631E1955830A55DF7ED1
SHA-1: 5AA64DAB7707B1C43DB38A0A93AA9C4D35DF0001
-----------------------------------------------------------------------
http://redump.org/disc/31056/
Game Name: Star Trek: Shattered Universe
Region: USA
Languages: English
Game ID: SLUS 20112
EXE: SLUS_201.12
EXE date: 2003-08-26
Version: 1.01
Edition: Original
Barcode: 7 39069 61514 5

Mastering Code (Ringcode): PDSS-006895A1<TAB>1
Mastering SID Code: IFPI L332
Toolstamp: A04
Mould SID Code: IFPI QW4E

Mould SID Code: IFPI QW4F

Size: 1934622720
CRC-32: 4DA24DFB
MD5: 5648A00C2773C6ED6DBAC3B61D0E3C17
SHA-1: EC1D2BD90244D3813C755F1EF08CA3F144BC08DF
-------------------------------------------------------------------
http://redump.org/disc/15991/
Game Name: Star Trek: Voyager: Elite Force
Region: Europe
Languages: English, French, German, Spanish, Italian
Game ID: SLES-50738
EXE: SLES_507.38
EXE date: 2002-06-13
Version: 1.03
Edition: Original
Barcode: 5 024866 320459

Comments:
Language selection via Language Selector

Mastering Code (Ringcode): Sony DADC<TAB>A0100419170-A511<TAB>27
Mastering SID Code: IFPI L557
Toolstamp: B1
Mould SID Code: NONE

Size: 2004451328
CRC-32: 332C3555
MD5: DDF3332707736FAFD0AA01CBCAFECEA5
SHA-1: 4BC7FA6793503328075B29E5BBFA16CD95BE8612
------------------------------------------------------------------
http://redump.org/disc/34002/
Game Name: Star Trek: Voyager: Elite Force
Region: USA
Languages: English
Game ID: SLUS 20227
EXE: SLUS_202.27
EXE date: 2001-11-16
Version: 1.10
Edition: Original
Barcode: 0 96427 01256 6

Mastering Code (Ringcode): PDSS-002185A1<TAB>4
Mastering SID Code: IFPI L330
Toolstamp: A01
Mould SID Code: IFPI QW2E

Mould SID Code: IFPI QW2F

Size: 1756102656
CRC-32: 536B5F5F
MD5: 2F52ABD36F2BCF2A6A919EE7315C4A64
SHA-1: 7DF24AED7C5E62A5E0CC31EACD1D456AF5A56871
-------------------------------------------------------------------
http://redump.org/disc/25536/
Game Name: Star Wars: Bounty Hunter
Region: Italy
Languages: Italian
Game ID: SLES-50834
EXE: SLES_508.34
EXE date: 2002-10-30
Version: 1.01
Edition: Original
Barcode: 0 023272 997113

Mastering Code (Ringcode): Sony DADC<TAB>A0100438593-A511<TAB>37
Mastering SID Code: IFPI L557
Toolstamp: A1
Mould SID Code: NONE

Size: 2361425920
CRC-32: 47EBFE10
MD5: E2A5F603C1E378930B32A8E14D41846A
SHA-1: 7751A7EFBDF37E2B586A394F22EA79C56742A32C
--------------------------------------------------------------------

DIC logs for CD games & Pictures for all https://mega.nz/#F!oKgwgT7A!Kx7gQMWw3nW0KMatAD4Bcg

Re: [ADDED][PS2] 9 Verification's + 1 more verification

+1 more since the above haven't been added yet. DIC logs & Pictures added to the same mega link. Note: Cover (Barcode) is for Platinum: The Best of PlayStation 2 while disc is Original Edition.

http://redump.org/disc/4674/
Game Title: LEGO Star Wars: The Video Game
Media: CD
Region: Europe
Languages: English, French, German, Spanish, Italian, Danish, Dutch
Edition: Original
Serial: SLES-53194
EXE: SLES_531.94
EXE date: 2005-02-28
Version: 1.00
Errors count: 0
Number of tracks: 1
Write offset: -12
Barcode: 5 032921 023191

Comments:
Language selection via Language Selector

Track(s):

<game name="LEGO Star Wars - The Video Game (Europe) (En,Fr,De,Es,It,Nl,Da)">
  <category>Games</category>
  <description>LEGO Star Wars - The Video Game (Europe) (En,Fr,De,Es,It,Nl,Da)</description>
  <rom name="LEGO Star Wars - The Video Game (Europe) (En,Fr,De,Es,It,Nl,Da).bin" size="734021568" crc="8a385061" md5="be0b64c9ce4f172302ed257dba7afa14" sha1="2895185845968d34274a278047e8d3c77bde6fb3" />
</game>

cuesheet:

FILE "LEGO Star Wars - The Video Game (Europe) (En,Fr,De,Es,It,Nl,Da).bin" BINARY
  TRACK 01 MODE2/2352
    INDEX 01 00:00:00

Mastering Code (laser branded/etched): Sony DADC<TAB>A0100597322-0101<TAB>18
Mastering SID Code: IFPI L558
Toolstamp or Mastering Code (engraved/stamped): A9
Mould SID Code: IFPI 9430