Topic: [FIXED] Fix to 3-D Ultra Pinball - Creep Night (USA) (Rerelease)

reentrant pointed out that this disc might have some problems, so I grabbed a copy I happened to have and redumped it.

Seeing as the Ring Code is the same, I'm inclined to believe that the previous dump was a bad dump.


Title: 3-D Ultra Pinball - Creep Night (USA) (Rerelease)
http://redump.org/disc/11577/
Languages: English
Serial: Not on Disc label
Mastering Ring Code: 24567 5 6 <8093> S5250430 CD-ROM BY SIERRA
Mastering SID Code: IFPI L487
Mould SID Code: IFPI 8153
Toolstamp: None
Additional Mould Text: AD/CA (this appears in the clear area, on the opposite side of the disc as the mould SID)
Barcode: 0 20626 70428 1
Errors Count:

[ERROR] Number of sector(s) where sync is zero: 1
    Sector: 165310, 
Total errors: 1

Comments: 
ISBN: 0-87177-771-1
Contents: 

Contains demos for: 3-D Ultra Pinball, Hunter Hunted, Cyber Gladiators, and RMAA
Version:

Editions/Releases: Rerelease
PVD:

0320 : 20 20 20 20 20 20 20 20  20 20 20 20 20 31 39 39                199
0330 : 37 31 30 31 36 30 38 33  31 31 38 30 30 00 31 39   7101608311800.19
0340 : 39 37 31 30 31 36 30 38  33 31 31 38 30 30 00 32   97101608311800.2
0350 : 30 30 37 31 30 31 34 30  38 33 31 31 38 30 30 00   007101408311800.
0360 : 31 39 39 37 31 30 31 36  30 38 33 31 31 38 30 30   1997101608311800
0370 : 00 01 00 00 00 00 00 00  00 00 00 00 00 00 00 00   ................

Copy Protection: None

ClrMamePRo data: 
<rom name="3-D Ultra Pinball - Creep Night (USA) (Rerelease) (Track 1).bin" size="388811472" crc="93cac44b" md5="2623381c1d2291876d6fcb10a7a6fb8e" sha1="fce385a531dace7fa6279845336622bb6a7af0b6" />
    <rom name="3-D Ultra Pinball - Creep Night (USA) (Rerelease) (Track 2).bin" size="14448336" crc="9d03a113" md5="0e587334ff51ecf63c25b5f4ff69c31d" sha1="f6cc496427685113e8891745d504f168a129e1d1" />
    <rom name="3-D Ultra Pinball - Creep Night (USA) (Rerelease) (Track 3).bin" size="14269584" crc="51798c03" md5="243c15573c9c167139cc0099046bee65" sha1="9f5f9197905c5860cbc5499e2d0dc826ab751f16" />
Cuesheet: 

FILE "3-D Ultra Pinball - Creep Night (USA) (Rerelease) (Track 1).bin" BINARY
  TRACK 01 MODE1/2352
    FLAGS DCP
    INDEX 01 00:00:00
FILE "3-D Ultra Pinball - Creep Night (USA) (Rerelease) (Track 2).bin" BINARY
  TRACK 02 AUDIO
    FLAGS DCP
    INDEX 00 00:00:00
    INDEX 01 00:01:74
FILE "3-D Ultra Pinball - Creep Night (USA) (Rerelease) (Track 3).bin" BINARY
  TRACK 03 AUDIO
    FLAGS DCP
    INDEX 00 00:00:00
    INDEX 01 00:01:74

Write Offset: 0

Link to logs: https://mega.nz/#!3tZ1HIRI!-xPWWHD6-m4_ … R9a_-AfT9A

Re: [FIXED] Fix to 3-D Ultra Pinball - Creep Night (USA) (Rerelease)

_sub.txt

LBA[000000, 0000000]: P[ff], Q[61010100000000000200113f]{ Data,      Copy OK,                  Track[01], Idx[01], RMSF[00:00:00], AMSF[00:02:00]}, RtoW[0, 0, 0, 0]
LBA[000001, 0x00001]: P[00], Q[61010100000100000201ab4f]{ Data,      Copy OK,                  Track[01], Idx[01], RMSF[00:00:01], AMSF[00:02:01]}, RtoW[0, 0, 0, 0]
LBA[000002, 0x00002]: P[00], Q[410101000002000002024cf3]{ Data,      Copy NG,                  Track[01], Idx[01], RMSF[00:00:02], AMSF[00:02:02]}, RtoW[0, 0, 0, 0]
LBA[000003, 0x00003]: P[00], Q[41010100000300000203f683]{ Data,      Copy NG,                  Track[01], Idx[01], RMSF[00:00:03], AMSF[00:02:03]}, RtoW[0, 0, 0, 0]
LBA[000004, 0x00004]: P[00], Q[41010100000400000204e1b0]{ Data,      Copy NG,                  Track[01], Idx[01], RMSF[00:00:04], AMSF[00:02:04]}, RtoW[0, 0, 0, 0]
LBA[000005, 0x00005]: P[00], Q[410101000005000002055bc0]{ Data,      Copy NG,                  Track[01], Idx[01], RMSF[00:00:05], AMSF[00:02:05]}, RtoW[0, 0, 0, 0]
LBA[000006, 0x00006]: P[00], Q[61010100000600000206bc7c]{ Data,      Copy OK,                  Track[01], Idx[01], RMSF[00:00:06], AMSF[00:02:06]}, RtoW[0, 0, 0, 0]
LBA[000007, 0x00007]: P[00], Q[61010100000700000207060c]{ Data,      Copy OK,                  Track[01], Idx[01], RMSF[00:00:07], AMSF[00:02:07]}, RtoW[0, 0, 0, 0]
LBA[000008, 0x00008]: P[00], Q[61010100000800000208921a]{ Data,      Copy OK,                  Track[01], Idx[01], RMSF[00:00:08], AMSF[00:02:08]}, RtoW[0, 0, 0, 0]
LBA[000009, 0x00009]: P[00], Q[61010100000900000209286a]{ Data,      Copy OK,                  Track[01], Idx[01], RMSF[00:00:09], AMSF[00:02:09]}, RtoW[0, 0, 0, 0]
LBA[000010, 0x0000a]: P[00], Q[410101000010000002103e59]{ Data,      Copy NG,                  Track[01], Idx[01], RMSF[00:00:10], AMSF[00:02:10]}, RtoW[0, 0, 0, 0]
LBA[000011, 0x0000b]: P[00], Q[410101000011000002118429]{ Data,      Copy NG,                  Track[01], Idx[01], RMSF[00:00:11], AMSF[00:02:11]}, RtoW[0, 0, 0, 0]
LBA[000012, 0x0000c]: P[00], Q[410101000012000002125a98]{ Data,      Copy NG,                  Track[01], Idx[01], RMSF[00:00:12], AMSF[00:02:12]}, RtoW[0, 0, 0, 0]
LBA[000013, 0x0000d]: P[00], Q[41010100001300000213e0e8]{ Data,      Copy NG,                  Track[01], Idx[01], RMSF[00:00:13], AMSF[00:02:13]}, RtoW[0, 0, 0, 0]

ctl/adr(41) is changed to 61 per 4 sectors. It's weird. Please check by subdump.

Re: [FIXED] Fix to 3-D Ultra Pinball - Creep Night (USA) (Rerelease)

sarami wrote:

_sub.txt
*snip*
ctl/adr(41) is changed to 61 per 4 sectors. It's weird. Please check by subdump.

What is the proper command line to use in this situation? I've never used subdump before.

Re: [FIXED] Fix to 3-D Ultra Pinball - Creep Night (USA) (Rerelease)

This is usually used.

subdump -i <DriveLetter>: -f <subfile> -mode 6 -rereadnum 25 -speed 4 -flushspeed 4 -fix 2

But this time, please also try "-mode 0" "-mode 1" "-mode 2" "-mode 4" "-mode 5".
The value of "-rereadnum" "-speed" "-flushspeed" is left to you.

5 (edited by ajshell1 2017-11-17 15:15:45)

Re: [FIXED] Fix to 3-D Ultra Pinball - Creep Night (USA) (Rerelease)

Okay. I'm using subdump mode 0 right now. I'll use mode 1 2 4 and 5 after that one

Does it matter if I use "subdump_fua_0x28.exe" or "subdump_fua_0xa8.exe"? I'm currently using the 0x28 version.

Re: [FIXED] Fix to 3-D Ultra Pinball - Creep Night (USA) (Rerelease)

Anything will be fine. But the db already had been overwritten by your dump... so plz tell me the result of mode 0 only.

Re: [FIXED] Fix to 3-D Ultra Pinball - Creep Night (USA) (Rerelease)

This is a valid fix. Nexy (the king of bad dumps) forgot to remove the 120 offset bytes.

Re: [FIXED] Fix to 3-D Ultra Pinball - Creep Night (USA) (Rerelease)

I wanted to know "FLAGS DCP" was valid or not, but you judged it as valid. IMO, you should leave the fact that FLAGS DCP is changed per 4 sectors to comment if this flags are irregular.