1 (edited by RetroGamer 2017-10-16 00:38:12)

Topic: Some fixes

- Please remove the barcode of this 2 dumps:
http://redump.org/disc/43792/ and http://redump.org/disc/43791/
I didn´t submitted the barcodes. The discs are promos so it's only a black disc, there are no boxes or manuals.


- I dumped and submitted via new disc form 2 different discs of: http://redump.org/disc/44022/
I dumped it with EAC and the hashes matched but the gap of the last track didn´t match the CUE in the DB...
Well, if EAC gaps were wrong, the size and hashes of the 2 last tracks dumped by EAC should be different, so maybe the CUE in the DB is wrong...
Here is my dumping info:

SERIAL:
RVL-SOUP-EUR

EDITION:
Limited Edition, Limited Edition Pack

BARCODE:
3856666B, 0 45496 40070 5

RING:
MASTERING CODE: 708.161    #9
MASTERING SID: IFPI IP57
MOULD SID: IFPI 3071

MASTERING CODE: 708.161    #8
MASTERING SID: IFPI IP57
MOULD SID: IFPI 3070

Comments:
Bundled with The Legend of Zelda: Skyward Sword.

1-The Legend of Zelda 25th Anniversary Medley
2-Kakariko Village - Twilight Princess Theme
3-The Wind Waker Symphonic Movement
4-Gerudo Valley
5-Great Fairy's Fountain Theme
6-Twilight Princess Symphonic Movement
7-The Legend of Zelda Main Theme Medley
8-Ballad of the Goddess from Skyward Sword

    rom ( name "01-the legend of zelda 25th anniversary medley.bin" size 85897392 crc 35bc9330 md5 2d853479c2489de2dd04bd95707cf107 sha1 66c50c64a5e2b5fa4e328ba9858be3a73d1ac5a3 )
    rom ( name "02-kakariko village-twilight princess theme.bin" size 29985648 crc 8352f955 md5 0a5170039b01c2068e0ca940525044e4 sha1 3f788462de005d0b2d6bc58228ba9396fbb9034a )
    rom ( name "03-the wind waker symphonic movement.bin" size 111494208 crc 6ef4199f md5 27e7ddcf86758b8650f02703f7e8511d sha1 ac5399dffe4fa327630d823273a52db265252d27 )
    rom ( name "04-gerudo valley.bin" size 38118864 crc 78d3a5a9 md5 a09e6bc7f5465132ff1a44202f42378e sha1 bcfa111b3248a9f7ae1a2d20e72ea2751c49fb6b )
    rom ( name "05-great fairy's fountain theme.bin" size 32271792 crc 0064cc21 md5 85f93540e1989415ae2ef6163d67802b sha1 aaf5d36ff65f040c4fae18c150dc728434e0cda4 )
    rom ( name "06-twilight princess symphonic movement.bin" size 111322512 crc d6a8fedd md5 a1bbd91536fcdb9af06aa960dfe8df78 sha1 3bec0b8d61065e8ea8d2c971344f7f7bf98e8778 )
    rom ( name "07-the legend of zelda main theme medley.bin" size 47458656 crc 7363a75f md5 fa33686dcc48468096787c8856892dd5 sha1 0f1441b4570cd34bf0fa71665d965e6ecb76535f )
    rom ( name 08-track08.bin size 22541568 crc e32a38dd md5 a6d5189cf8d89676423eeef7586ef39b sha1 f5914efee2d97ce30c90e3ff22f8e98598f8d5c6 )

FILE "The Legend of Zelda 25th Anniversary Medley.wav" WAVE
  TRACK 01 AUDIO
    INDEX 01 00:00:00
FILE "Kakariko Village-Twilight Princess Theme.wav" WAVE
  TRACK 02 AUDIO
    INDEX 00 00:00:00
    INDEX 01 00:01:69
FILE "The Wind Waker Symphonic Movement.wav" WAVE
  TRACK 03 AUDIO
    INDEX 00 00:00:00
    INDEX 01 00:02:13
FILE "Gerudo Valley.wav" WAVE
  TRACK 04 AUDIO
    INDEX 00 00:00:00
    INDEX 01 00:01:09
FILE "Great Fairy's Fountain Theme.wav" WAVE
  TRACK 05 AUDIO
    INDEX 00 00:00:00
    INDEX 01 00:01:37
FILE "Twilight Princess Symphonic Movement.wav" WAVE
  TRACK 06 AUDIO
    INDEX 00 00:00:00
    INDEX 01 00:02:06
FILE "The Legend of Zelda Main Theme Medley.wav" WAVE
  TRACK 07 AUDIO
    INDEX 00 00:00:00
    INDEX 01 00:02:10
FILE "Track08.wav" WAVE
  TRACK 08 AUDIO
    INDEX 00 00:00:00
    INDEX 01 00:01:72




- And finally one fix that is bothering me for a long time...
It's about this dump: http://redump.org/disc/9514/
It´s a dump a made in my early days in Redump.org and after dumping many more Tomb Raider III discs i never found a matching dump (they matched the other dumps in the DB: http://redump.org/disc/4824/ and http://redump.org/disc/927/ . Maybe i submitted the hashes of a wrong file after messing around with psxtools.exe zektor and antizektor functions... so i really think it's better to turn the dump to red status until someone finds it again (if anyone ever finds it...) and in this one: http://redump.org/disc/4824/ the (EDC) flag should be removed.

"Did you ever wonder why we had to run for shelter when the promise of a brave new world unfurled beneath a clear blue sky?"