1 (edited by krangpow 2017-07-31 04:45:02)

Topic: [IBM PC] 1x Verify, 2x Addition

Verify:
Catalog Data
Dump Name:                 : Dune 2000
Disc Title:             : DUNE2000
Disc Number                : 1
Disc ID / Serial        : VIR100734
Category                : Games
Region                    : Europe
Languages                : German
Barcode                    : -
Edition                    : Original
Version                    : -
Comments                :

Ringcode Data
Mastering Code         : VIR100734

Dump Data
Cuesheet

FILE "DUNE2000.BIN" BINARY
  TRACK 01 MODE1/2352
    INDEX 01 00:00:00

Primary Volume Descriptor (PVD)

0320 : 20 20 20 20 20 20 20 20  20 20 20 20 20 30 30 30                000
0330 : 30 30 30 30 30 30 30 30  30 30 30 30 30 00 30 30   0000000000000.00
0340 : 30 30 30 30 30 30 30 30  30 30 30 30 30 30 00 30   00000000000000.0
0350 : 30 30 30 30 30 30 30 30  30 30 30 30 30 30 30 00   000000000000000.
0360 : 30 30 30 30 30 30 30 30  30 30 30 30 30 30 30 30   0000000000000000
0370 : 00 01 00 00 00 00 00 00  00 00 00 00 00 00 00 00   ................

Hashes
MD5: 0fb360637ba3d574af271dbbea7c544f
SHA-1 :1f60ee8cf366b9d07be684803afd4f759eef4e7b   
CRC32 :7fb0fae8   

Verification
Dumping Tool: ImgBurn 2.5.8.0 on IHAS 122 W
Dumping Tool: DiscImageCreator 20170724 on SH-B123L

---------------------------------------------------------------------------
---------------------------------------------------------------------------

Addition:

Catalog Data
Dump Name:     : Der Planer 3
Disc Title:         : DER_PLANER_3
Disc Number    : 1
Disc ID / Serial    : 51185718/PLANER3
Category        : Games
Region        : Europe
Languages        : German
Barcode        : 4 012160 342445
Edition        : Die Pyramide
Version        : 1.2
Comments        : Pdf Manual is attached to installation package

Ringcode Data
Mastering Code         : sonopress arvato<tab>51185718/PLANER3 21
Mastering SID Code     : IFPI LB 47
Mould SID Code        : IFPI 0786

Dump Data
Cuesheet

FILE "DER_PLANER_3.BIN" BINARY
  TRACK 01 MODE1/2352
    INDEX 01 00:00:00

Primary Volume Descriptor (PVD)

0320 : 20 20 20 20 20 20 20 20  20 20 20 20 20 20 20 20                   
0330 : 20 20 20 20 20 20 20 20  20 20 20 20 20 32 30 30                200
0340 : 34 30 36 32 34 31 34 33  32 30 30 30 30 08 32 30   4062414320000.20
0350 : 30 34 30 36 32 34 31 34  33 32 30 30 30 30 08 30   04062414320000.0
0360 : 30 30 30 30 30 30 30 30  30 30 30 30 30 30 30 00   000000000000000.
0370 : 30 30 30 30 30 30 30 30  30 30 30 30 30 30 30 30   0000000000000000

Hashes
MD5: 16a3fd3537a9f514f0972146b353b517
SHA-1 :c415bc93fc0c65aefee7798b4a63df324cc192cb   
CRC32 :8deeb969   

Verification
Dumping Tool: ImgBurn 2.5.8.0 on IHAS 122 W
Dumping Tool: DiscImageCreator 20170724 on SH-B123L

---------------------------------------------------------------------------
---------------------------------------------------------------------------

Catalog Data
Dump Name:         : Sim Town
Disc Title:             : SIMTOWN
Disc Number        : 1
Disc ID / Serial        : DCG 008678
Category            : Games
Region            : Europe
Languages            : German
Barcode            : 8 715686 008678
Edition            : Dice


Ringcode Data
Mastering Code         : GZ O51228 DCG 008678
Mastering SID Code     : IFPI LD02
Mould SID Code        : IFPI 5J16

Dump Data
Cuesheet

FILE "SIMTOWN.BIN" BINARY
  TRACK 01 MODE1/2352
    INDEX 01 00:00:00

Primary Volume Descriptor (PVD)

0320 : 20 20 20 20 20 20 20 20  20 20 20 20 20 20 20 20                   
0330 : 20 20 20 20 20 20 20 20  20 20 20 20 20 32 30 30                200
0340 : 31 31 31 32 31 31 37 30  31 30 32 36 33 04 32 30   1112117010263.20
0350 : 30 31 31 31 32 31 31 37  30 31 31 36 33 30 C4 00   01112117011630..
0360 : 00 00 00 00 00 00 00 00  00 00 00 00 00 00 00 00   ................
0370 : 00 00 00 00 00 00 00 00  00 00 00 00 00 00 00 00   ................

Hashes
MD5     : e5458e800936ed0fbcbe73d13bac9e46
SHA-1  :bbde98fcd429487da5c8fee2560bd61e397d5b34   
CRC32  :133d0db9   

Verification
Dumping Tool: ImgBurn 2.5.8.0 on IHAS 122 W
Dumping Tool: DiscImageCreator 20170724 on SH-B123L