1 (edited by cherokeelzzS 2017-04-18 03:35:43)

Topic: [IBM] 3 New Disc

Diablo II (Install Disc) (v1.03)
ディアブロⅡ

Region: Japan
Languages: Jpanese
Seria: S8499011
Edition: Original
Barcode: 4976219565080

Write Offset: -22

Mastering Code (Ringcode): S8499011[TAB]Technicolor[TAB]C4[TAB]167421-01
Mastering SID Code: IFPI L894
Mould SID Code: IFPI 2T01    NIMBUS/CA

Errors count (edccchk v1.26): 0

PVD:
0320 : 20 20 20 20 20 20 20 20  20 20 20 20 20 32 30 30                200
0330 : 30 30 39 32 36 32 31 30  36 31 36 30 30 00 32 30   0092621061600.20
0340 : 30 30 30 39 32 36 32 31  30 36 33 39 30 30 00 00   00092621063900..
0350 : 00 00 00 00 00 00 00 00  00 00 00 00 00 00 00 00   ................
0360 : 00 00 00 00 00 00 00 00  00 00 00 00 00 00 00 00   ................
0370 : 00 01 00 00 00 00 00 00  00 00 00 00 00 00 00 00   ................

Cuesheet:
FILE "TestD8.bin" BINARY
  TRACK 01 MODE1/2352
    INDEX 01 00:00:00

ClrMamePro data:
    <rom name="TestD8.bin" size="659402016" crc="38931d7d" md5="876f88a46623a265b9192d3026e88ab8" sha1="9369e50f7a8ed2aeaaab81ddd2cd6acecc5e30ac" />

CDmage 1.01.5:
Image has no errors.

Comments:
日本語版
Windows
2000/98/95/NT
& Macintosh
===========================================================================================

Diablo II (Disc 2) (Play Disc) (v1.03)
ディアブロⅡ

Region: Japan
Languages: Jpanese
Seria: S8499020
Edition: Original
Barcode: 4976219565080

Write Offset: -59

Mastering Code (Ringcode): S8499020[TAB]Technicolor[TAB]C3.2[TAB]166114-03
Mastering SID Code: IFPI L893
Mould SID Code: IFPI 8022    TECHNICOLOR/CA

Errors count (edccchk v1.26): 0

PVD:
0320 : 20 20 20 20 20 20 20 20  20 20 20 20 20 32 30 30                200
0330 : 30 30 39 31 33 31 38 32  35 34 37 30 30 00 32 30   0091318254700.20
0340 : 30 30 30 39 31 33 31 38  32 35 35 30 30 30 00 00   00091318255000..
0350 : 00 00 00 00 00 00 00 00  00 00 00 00 00 00 00 00   ................
0360 : 00 00 00 00 00 00 00 00  00 00 00 00 00 00 00 00   ................
0370 : 00 01 00 00 00 00 00 00  00 00 00 00 00 00 00 00   ................

Cuesheet:
FILE "TestD8.bin" BINARY
  TRACK 01 MODE1/2352
    INDEX 01 00:00:00

ClrMamePro data:
    <rom name="TestD8.bin" size="704786208" crc="f36fc245" md5="1c9016224277df0eaabb24fbf0926f92" sha1="5f0642b00da9c0abb08cee32e450d75617ecc846" />

CDmage 1.01.5:
Track #| Sector|Sync|Header|Subheader|EDC|Intermediate|ECC P|ECC Q|Severity|Content of sector
      1|299,800| No |  Yes |   N/A   |Yes|    Yes     | Yes | Yes |Medium  |Yet not identified

Total error count:1

Comments:
日本語版
Windows
2000/98/95/NT
& Macintosh
===========================================================================================

Diablo II (Disc 3) (Cinematics Disc) (v1.03)
ディアブロⅡ

Region: Japan
Languages: Jpanese
Seria: S8499030
Edition: Original
Barcode: 4976219565080

Write Offset: -22

Mastering Code (Ringcode): S8499030[TAB]Technicolor[TAB]C4[TAB]166115-01
Mastering SID Code: IFPI L894
Mould SID Code: IFPI 8023    NIMBUS/CA

Errors count (edccchk v1.26): 0

PVD:
0320 : 20 20 20 20 20 20 20 20  20 20 20 20 20 32 30 30                200
0330 : 30 30 39 31 33 31 38 34  35 35 37 30 30 00 32 30   0091318455700.20
0340 : 30 30 30 39 31 33 31 38  34 36 30 38 30 30 00 00   00091318460800..
0350 : 00 00 00 00 00 00 00 00  00 00 00 00 00 00 00 00   ................
0360 : 00 00 00 00 00 00 00 00  00 00 00 00 00 00 00 00   ................
0370 : 00 01 00 00 00 00 00 00  00 00 00 00 00 00 00 00   ................

Cuesheet:
FILE "TestD8.bin" BINARY
  TRACK 01 MODE1/2352
    INDEX 01 00:00:00

ClrMamePro data:
    <rom name="TestD8.bin" size="512566656" crc="f355052c" md5="1482de79c687c9e0f02f18d251434703" sha1="8036268983b1c634eb5bdfd948719a388228473d" />

CDmage 1.01.5:
Image has no errors.

Comments:
日本語版
Windows
2000/98/95/NT
& Macintosh
===========================================================================================

DIC etc files
https://mega.nz/#!0t5QQQyD!oqMuO26TVOLG … CVcBG9Ttho