Topic: [IBM] Beast within Gabriel knight VERIFY

Disc 2:
Mine is the French version and matches http://redump.org/disc/10244/
Un Mystere Avec Gabriel Knight The Beast Within

Barcode: 3 348542 007123
Serial: S4600220Z1201
Comments: BBFC Reg. No. VFB 08101
Ring:
IFPI L033
GABRIEL2E2/GABRIEL2F2 17 JAN 96 MPO 01 @@@ 9
Toolstamp: 01
IFPI 120A
Language: English

CUE:

CATALOG 0000000000000
FILE "Gabrile2.bin" BINARY
  TRACK 01 MODE1/2352
    INDEX 01 00:00:00

DAT:

<rom name="Gabrile2.bin" size="670237680" crc="60b0db41" md5="9c4c3a1023aab8b5b549784dad85e1e0" sha1="b88bb65cc673d4013f0d84afafd5a2e5dcfa703a" />

offset: +222

2 (edited by MrX_Cuci 2016-06-07 22:37:46)

Re: [IBM] Beast within Gabriel knight VERIFY

Disc 1:
Mine is the French version and matches http://redump.org/disc/10243/
Un Mystere Avec Gabriel Knight The Beast Within

Barcode: 3 348542 007123
Serial: S4600220Z12ZZ
Comments: BBFC Reg. No. VFB 08101
Ring:
IFPI L033
GABRIEL2E1/GABRIEL2F1 17 JAN 96 MPO 01 @@@ 9
Toolstamp: 02
Language: English

CUE:

CATALOG 0000000000000
FILE "Gabrile1.bin" BINARY
  TRACK 01 MODE1/2352
    INDEX 01 00:00:00

DAT:

<rom name="Gabrile1.bin" size="773401104" crc="3740d1f8" md5="d1aae37289f9ebfd8670c8058d2581bc" sha1="5a2d7d7de96294f4c2008966f35e13ac52244849" />

offset: +222

3 (edited by MrX_Cuci 2016-06-08 10:05:40)

Re: [IBM] Beast within Gabriel knight VERIFY

Disc 3:
Mine is the French version and matches http://redump.org/disc/10245/
Un Mystere Avec Gabriel Knight The Beast Within

Barcode: 3 348542 007123
Serial: S4600220Z1202
Comments: BBFC Reg. No. VFB 08101
Ring:
IFPI L033
GABRIEL2E3/GABRIEL2F3 17 JAN 96 MPO 01 @@@ 9
Toolstamp: 02
Language: English

CUE:

CATALOG 0000000000000
FILE "Gabrile3.bin" BINARY
  TRACK 01 MODE1/2352
    INDEX 01 00:00:00

DAT:

<rom name="Gabrile3.bin" size="770458752" crc="a3e1f937" md5="a0c5f3243b8e102565b52e4352492295" sha1="d85afcc7d5627d5a1be39408c520d2f3f59202d6" />

offset: +222

4 (edited by MrX_Cuci 2016-06-08 11:25:40)

Re: [IBM] Beast within Gabriel knight VERIFY

Disc 4:
Mine is the French version and matches http://redump.org/disc/10246/
Un Mystere Avec Gabriel Knight The Beast Within

Barcode: 3 348542 007123
Serial: S4600220Z1203
Comments: BBFC Reg. No. VFB 08101
Ring:
IFPI L033
GABRIEL2E4/GABRIEL2F4 17 JAN 96 MPO 01 @@@ 9
Toolstamp: 02
IFPI120A
Language: English

CUE:

CATALOG 0000000000000
FILE "Gabrile4.bin" BINARY
  TRACK 01 MODE1/2352
    INDEX 01 00:00:00

DAT:

<rom name="Gabrile4.bin" size="771056160" crc="9865554a" md5="961e709791e2cbef431cdf68b2b9471e" sha1="4f1212631e714f69b86abe73dea70e95d7384a73" />

offset: +222

5 (edited by MrX_Cuci 2016-06-12 21:59:44)

Re: [IBM] Beast within Gabriel knight VERIFY

Disc 5:
Mine is the French version and matches http://redump.org/disc/10247/
Un Mystere Avec Gabriel Knight The Beast Within

Barcode: 3 348542 007123
Serial: S4600220Z1204
Comments: BBFC Reg. No. VFB 08101
Ring:
IFPI L033
GABRIEL2E5/GABRIEL2F5 17 JAN 96 MPO 01 @@@ 9
Toolstamp: 03
Language: English

CUE:

CATALOG 0000000000000
FILE "Gabrile5.bin" BINARY
  TRACK 01 MODE1/2352
    INDEX 01 00:00:00

DAT:

 <rom name="Gabrile5.bin" size="770421120" crc="1a52d517" md5="358748bbb440398c2b674923986b1a43" sha1="4a928f07b4538cee7319b362a3c1f6987d38c8ef" />

offset: +222

6 (edited by MrX_Cuci 2016-06-12 21:59:52)

Re: [IBM] Beast within Gabriel knight VERIFY

Disc 6:
Mine is the French version and matches http://redump.org/disc/10248/
Un Mystere Avec Gabriel Knight The Beast Within

Barcode: 3 348542 007123
Serial: S4600220Z1205
Comments: BBFC Reg. No. VFB 08101
Ring:
IFPI L033
GABRIEL2E6/GABRIEL2F6 18 JAN 96 MPO 01 @@@ 9
Toolstamp: 02
Language: English

CUE:

CATALOG 0000000000000
FILE "Gabrile6.bin" BINARY
  TRACK 01 MODE1/2352
    INDEX 01 00:00:00

DAT:

<rom name="Gabrile6.bin" size="714050736" crc="7cfb501b" md5="3f71010134fa3310a28ec615b312d716" sha1="f813c3d26a95c7675e3e5859f969377574e2124c" />

offset: +222