1 (edited by Nicolas Le Gland 2022-11-23 15:33:01)

Submission info:

Common Disc Info:
    Title: HALF-LIFE
    Foreign Title (Non-latin): 
    Disc Number / Letter: 
    Disc Title: 
    System: IBM PC compatible
    Media Type: CD-ROM
    Category: Games
    Region: World
    Languages: French
    Disc Serial: 

    Ringcode Information:
        Data Side Mastering Code (laser branded/etched): S0021221 18 OCT 00 @@ 20001019 1307 @@ 4
        Data Side Mastering SID Code: IFPI L032
        Data Side Toolstamp or Mastering Code (engraved/stamped): 01
        Data Side Mould SID Code: IFPI 123A
        Data Side Additional Mould: 
        Label Side Mould SID Code: 
    Barcode: 3 348542 117211
    Error Count: 0
    Comments:

[T:VOL] HALF_LIFE
<b>Sierra ID</b>: S0021221

    Contents: 

Version and Editions:
    Version: 
    Edition/Release: GAME OF THE YEAR EDITION

Extras:
    Primary Volume Descriptor (PVD):

0320 : 20 20 20 20 20 20 20 20  20 20 20 20 20 32 30 30                200
0330 : 30 30 39 31 34 31 33 35  35 30 30 30 30 08 32 30   0091413550000.20
0340 : 30 30 30 39 31 34 31 33  35 35 30 30 30 30 08 30   00091413550000.0
0350 : 30 30 30 30 30 30 30 30  30 30 30 30 30 30 30 00   000000000000000.
0360 : 30 30 30 30 30 30 30 30  30 30 30 30 30 30 30 30   0000000000000000
0370 : 00 01 00 00 00 00 00 00  00 00 00 00 00 00 00 00   ................

Copy Protection:
    Copy Protection: None found

Tracks and Write Offsets:
    DAT:

<rom name="HALF_LIFE (Track 01).bin" size="443544864" crc="574b11da" md5="20efcccfabfe45ed54648b7f1cd160c1" sha1="5783022cc032cb975e8bf6a8b34e0c12bbc502d9" />
<rom name="HALF_LIFE (Track 02).bin" size="23240112" crc="ac2821d6" md5="3e363d64efc8a3534944882730ae38ec" sha1="77e36ce16c3a9ab98e669fd1c391f26a53870808" />
<rom name="HALF_LIFE (Track 03).bin" size="23604672" crc="a23890fe" md5="1e028fd3c6db51abb0b417f94017ac27" sha1="73ff11c9e2022caf65df2f9c9a9bb0718f7540ec" />
<rom name="HALF_LIFE (Track 04).bin" size="10929744" crc="6e0e59ee" md5="dc6d5df03c0426d5e8143130bfa6f3d5" sha1="5cbd93e6df9e9d53377dd847de963dbb0669a350" />
<rom name="HALF_LIFE (Track 05).bin" size="17310720" crc="943a3769" md5="1b30371f0c4892333c9bea881fa53a04" sha1="3737fc4ae70519b6ae9ef47cd9ab6d9e4995163c" />
<rom name="HALF_LIFE (Track 06).bin" size="17856384" crc="e291c3bb" md5="33cc217b5d88106b4eacd92f4b302d8e" sha1="7d2bd0ebe01db382d79a1105a2c0cd2d54b4f98f" />
<rom name="HALF_LIFE (Track 07).bin" size="4431168" crc="e8e577e4" md5="77958d3998986240e21f8329d8d0050f" sha1="da23b66c3266bcdb0d249fdc35990c25826e1028" />
<rom name="HALF_LIFE (Track 08).bin" size="2086224" crc="d2a3ae5c" md5="fc69e83b876d8364b63cc05b4190dcaf" sha1="1090df14eca78d1919805156fa0f97eb6b5995f9" />
<rom name="HALF_LIFE (Track 09).bin" size="16753296" crc="798dc023" md5="f403cbf19ad6ae96d28b36d829125890" sha1="50cacde95dfb6cdbea26254696e40a5b64f9a395" />
<rom name="HALF_LIFE (Track 10).bin" size="18794832" crc="334e1e50" md5="9370de7c974768ce6dfbdbe5829214d7" sha1="e7aa21d655d9a1d5e0021d1d5c841f56f6950306" />
<rom name="HALF_LIFE (Track 11).bin" size="14956368" crc="362b6e13" md5="b1c84092f1f268c2a24c1d53d49ae998" sha1="b3647aa4c5f7c2167523476f3587a32970391692" />
<rom name="HALF_LIFE (Track 12).bin" size="22880256" crc="3148956b" md5="28fc97f189f2ac85967cbe9a096b8b72" sha1="c1da3a916c4f630c0f829aa40f007d24ee1c04cd" />
<rom name="HALF_LIFE (Track 13).bin" size="6738480" crc="34c266f7" md5="023d28265d8fecfab8131d9b5010dbe3" sha1="a11f7eb4bcfa03b4d3ef61cc2b0c9d297f6b6aad" />
<rom name="HALF_LIFE (Track 14).bin" size="13225296" crc="5ad331a1" md5="f5f8373c30af1c0a473545f851a93369" sha1="525e64f7de497ae929f5aaebe49be386bf08d65c" />
<rom name="HALF_LIFE (Track 15).bin" size="21556080" crc="1b2d195a" md5="5058b10836de3325bb670bdceb7d76e3" sha1="95427070a9c18136e43cdcc72afd054e9574263f" />
<rom name="HALF_LIFE (Track 16).bin" size="3205776" crc="49bf8cd6" md5="2bec9666dd70853245db62ec32f9409e" sha1="6878d514b8760fe6abfcb09ae5fb064e43781f6b" />
<rom name="HALF_LIFE (Track 17).bin" size="22214640" crc="002c1a48" md5="e1c68d17672d0cd1b6ac2a7403f925fb" sha1="691f4d801417f3e1232d68c46a3428fcbbe5b38c" />
<rom name="HALF_LIFE (Track 18).bin" size="18242112" crc="23afdd77" md5="634a8d70ced8d7216210b607c298d1bc" sha1="637cfdcc69c49431c6e97c3c6686ff3734765472" />
<rom name="HALF_LIFE (Track 19).bin" size="20525904" crc="d1273f3e" md5="21956f6e359e7d01e0719dbba736a1ad" sha1="1cbe0c0cd6827c544f6df589a10dab98ae8f62a8" />
<rom name="HALF_LIFE (Track 20).bin" size="15236256" crc="efe53009" md5="78c677466358aeece672fbbf149cae5f" sha1="05eb83ba2462de0d0ae9125e013fc4dfea3646c0" />
<rom name="HALF_LIFE (Track 21).bin" size="15252720" crc="cec74d79" md5="60cb3224ad787a50e31bce51cf4e901b" sha1="f75d626d28cd73b1fd9cdd9043fec1f0ac9ff1f3" />
<rom name="HALF_LIFE (Track 22).bin" size="14537712" crc="732d7c25" md5="07cfa225cc6782d851b5ec123a91e7cc" sha1="9ff32dec922460af506886232b53564b67cba595" />
<rom name="HALF_LIFE (Track 23).bin" size="19712112" crc="058b3456" md5="1eba82285a5ac4fb185d6f8012a48279" sha1="b28ee246fe709c7cc0db91a43fa206b4622e8956" />
<rom name="HALF_LIFE (Track 24).bin" size="13874448" crc="7cf111a4" md5="224b79e24b77139e339b91ace6d5046d" sha1="f64e90d0c15708b5ab18e83cee4d6ad9f273b1ef" />
<rom name="HALF_LIFE (Track 25).bin" size="17875200" crc="d81f776c" md5="1d3efdafaefd07a216507c6e85c9a787" sha1="d2ebed48fe294ce9c42971c8142375190684f23c" />
<rom name="HALF_LIFE (Track 26).bin" size="6936048" crc="112bdeb0" md5="6819bfd437821d85a017219fab0315c1" sha1="4246499e0e63355d73a4d37a3f173050d67db952" />
<rom name="HALF_LIFE (Track 27).bin" size="3412752" crc="4cf7346d" md5="8c92c1b5f8ea891847944588e93b8a71" sha1="9c599f6c3a1ae0f4f8f00e2522628658ababd861" />
<rom name="HALF_LIFE (Track 28).bin" size="2020368" crc="85ad1615" md5="5973f7077ddb03d404298a12d96739f5" sha1="34f887227513db68e845c9faf430a14354176626" />

    Cuesheet:

FILE "HALF_LIFE (Track 01).bin" BINARY
  TRACK 01 MODE2/2352
    INDEX 01 00:00:00
FILE "HALF_LIFE (Track 02).bin" BINARY
  TRACK 02 AUDIO
    INDEX 00 00:00:00
    INDEX 01 00:02:00
FILE "HALF_LIFE (Track 03).bin" BINARY
  TRACK 03 AUDIO
    INDEX 00 00:00:00
    INDEX 01 00:02:00
FILE "HALF_LIFE (Track 04).bin" BINARY
  TRACK 04 AUDIO
    INDEX 00 00:00:00
    INDEX 01 00:02:00
FILE "HALF_LIFE (Track 05).bin" BINARY
  TRACK 05 AUDIO
    INDEX 00 00:00:00
    INDEX 01 00:02:00
FILE "HALF_LIFE (Track 06).bin" BINARY
  TRACK 06 AUDIO
    INDEX 00 00:00:00
    INDEX 01 00:02:00
FILE "HALF_LIFE (Track 07).bin" BINARY
  TRACK 07 AUDIO
    INDEX 00 00:00:00
    INDEX 01 00:02:00
FILE "HALF_LIFE (Track 08).bin" BINARY
  TRACK 08 AUDIO
    INDEX 00 00:00:00
    INDEX 01 00:02:00
FILE "HALF_LIFE (Track 09).bin" BINARY
  TRACK 09 AUDIO
    INDEX 00 00:00:00
    INDEX 01 00:02:00
FILE "HALF_LIFE (Track 10).bin" BINARY
  TRACK 10 AUDIO
    INDEX 00 00:00:00
    INDEX 01 00:02:00
FILE "HALF_LIFE (Track 11).bin" BINARY
  TRACK 11 AUDIO
    INDEX 00 00:00:00
    INDEX 01 00:02:00
FILE "HALF_LIFE (Track 12).bin" BINARY
  TRACK 12 AUDIO
    INDEX 00 00:00:00
    INDEX 01 00:02:00
FILE "HALF_LIFE (Track 13).bin" BINARY
  TRACK 13 AUDIO
    INDEX 00 00:00:00
    INDEX 01 00:02:00
FILE "HALF_LIFE (Track 14).bin" BINARY
  TRACK 14 AUDIO
    INDEX 00 00:00:00
    INDEX 01 00:02:00
FILE "HALF_LIFE (Track 15).bin" BINARY
  TRACK 15 AUDIO
    INDEX 00 00:00:00
    INDEX 01 00:02:00
FILE "HALF_LIFE (Track 16).bin" BINARY
  TRACK 16 AUDIO
    INDEX 00 00:00:00
    INDEX 01 00:02:00
FILE "HALF_LIFE (Track 17).bin" BINARY
  TRACK 17 AUDIO
    INDEX 00 00:00:00
    INDEX 01 00:02:00
FILE "HALF_LIFE (Track 18).bin" BINARY
  TRACK 18 AUDIO
    INDEX 00 00:00:00
    INDEX 01 00:02:00
FILE "HALF_LIFE (Track 19).bin" BINARY
  TRACK 19 AUDIO
    INDEX 00 00:00:00
    INDEX 01 00:02:00
FILE "HALF_LIFE (Track 20).bin" BINARY
  TRACK 20 AUDIO
    INDEX 00 00:00:00
    INDEX 01 00:02:00
FILE "HALF_LIFE (Track 21).bin" BINARY
  TRACK 21 AUDIO
    INDEX 00 00:00:00
    INDEX 01 00:02:00
FILE "HALF_LIFE (Track 22).bin" BINARY
  TRACK 22 AUDIO
    INDEX 00 00:00:00
    INDEX 01 00:02:00
FILE "HALF_LIFE (Track 23).bin" BINARY
  TRACK 23 AUDIO
    INDEX 00 00:00:00
    INDEX 01 00:02:00
FILE "HALF_LIFE (Track 24).bin" BINARY
  TRACK 24 AUDIO
    INDEX 00 00:00:00
    INDEX 01 00:02:00
FILE "HALF_LIFE (Track 25).bin" BINARY
  TRACK 25 AUDIO
    INDEX 00 00:00:00
    INDEX 01 00:02:00
FILE "HALF_LIFE (Track 26).bin" BINARY
  TRACK 26 AUDIO
    INDEX 00 00:00:00
    INDEX 01 00:02:00
FILE "HALF_LIFE (Track 27).bin" BINARY
  TRACK 27 AUDIO
    INDEX 00 00:00:00
    INDEX 01 00:02:00
FILE "HALF_LIFE (Track 28).bin" BINARY
  TRACK 28 AUDIO
    INDEX 00 00:00:00
    INDEX 01 00:02:00

    Write Offset: -12

Dumping Info:
    Dumping Program: DiscImageCreator 20220909
    Manufacturer: ASUS
    Model: BW-16D1HT
    Firmware: 3.10
    Reported Disc Type: CD-ROM XA Disc

Protection info:

F:\_user1.hdr\ereg.dll: Executable-Based Online Registration 2.0.0.0
F:\data1.hdr\ereg.dll: Executable-Based Online Registration 2.00.0016
F:\_user1.hdr\ereg3201.dll: Executable-Based Online Registration 2.0.0
F:\data1.hdr\ereg3201.dll: Executable-Based Online Registration 2.0.0

Logs:
https://mega.nz/file/EOUnSKaC#Q24nPm1NN … jWSVOKrAPI

Ring:

Post's attachments

HALF_LIFE_ring.jpg 205.22 kb, file has never been downloaded. 

You don't have the permssions to download the attachments of this post.

I'm sorry but at the moment we can't accept a multi-track dump made with ASUS drives, you'll need a Plextor drive to add this game to the database.
ASUS drive should be fine for all the DVDs and CDs with a single track on it (no audio).

Plextor: PX-W4012TU, PX-W5224TA, Premium, PX-716SA, PX-716A || LG GDR-8164B
HP (Toshiba/Samsung): TS-H353A - Kreon FW || Lite-On SOHD-167D
HP (Hitachi/LG): BH40N - crossflashed with LG BH16NS40 FW || Sony Optiarc AD-7280S

3 (edited by Nicolas Le Gland 2022-12-13 11:43:36)

I tried to follow the "Disc Dumping Guide" and the pinned post but apparently got past the "Compatible disc drive" link.

I will try to source one from the list.