Has a different ring code. Wasn't sure to submit as new disc or verification.

http://redump.org/disc/68762/

https://drive.google.com/drive/folders/ … sp=sharing

Common Disc Info:
    Title: (REQUIRED)
    Foreign Title (Non-latin): (OPTIONAL)
    Disc Number / Letter: (OPTIONAL)
    Disc Title: (OPTIONAL)
    System: Fujitsu FM Towns Marty
    Media Type: CD-ROM
    Category: Games
    Region: Japan
    Languages: SILENCE! (CHANGE THIS)
    Disc Serial: (REQUIRED, IF EXISTS)

    Ringcode Information:
        Data Side Mastering Code (laser branded/etched): B276A011-20[TAB]SYSTEM-D[TAB]29C305 .
        Data Side Mastering SID Code: (REQUIRED, IF EXISTS)
        Data Side Toolstamp or Mastering Code (engraved/stamped): (REQUIRED, IF EXISTS)
        Data Side Mould SID Code: (REQUIRED, IF EXISTS)
        Data Side Additional Mould: (REQUIRED, IF EXISTS)
        Label Side Mould SID Code: (REQUIRED, IF EXISTS)
    Barcode: (OPTIONAL)
    Error Count: 0
    Comments:

[T:VOL] TOWNSSYSTEMV21L20
(OPTIONAL)

    Contents: (OPTIONAL)

Version and Editions:
    Version: (REQUIRED, IF EXISTS)
    Edition/Release: (VERIFY THIS) Original

Extras:
    Primary Volume Descriptor (PVD):

0320 : 20 20 20 20 20 20 20 20  20 20 20 20 20 31 39 39                199
0330 : 32 31 30 32 33 30 30 30  30 30 30 30 30 00 30 30   2102300000000.00
0340 : 30 30 30 30 30 30 30 30  30 30 30 30 30 30 00 30   00000000000000.0
0350 : 30 30 30 30 30 30 30 30  30 30 30 30 30 30 30 00   000000000000000.
0360 : 30 30 30 30 30 30 30 30  30 30 30 30 30 30 30 30   0000000000000000
0370 : 00 01 00 00 00 00 00 00  00 00 00 00 00 00 00 00   ................

Copy Protection:

Tracks and Write Offsets:
    DAT:

<rom name="TOWNSSYSTEMV21L20 (Track 1).bin" size="423007200" crc="0526eb4b" md5="17f59b1db2e42adbc86f473e80208737" sha1="837158ffc561c1c00218d9497059abfa10287317" />
<rom name="TOWNSSYSTEMV21L20 (Track 2).bin" size="10306464" crc="547ca50d" md5="64ecddde1ea1d6990432b135ad4d8cd6" sha1="af2f32265b2b259cf22cd84830e51adfe7d64393" />
<rom name="TOWNSSYSTEMV21L20 (Track 3).bin" size="11054400" crc="308444b1" md5="4bcbd862f96e5afd3a76a6fc3e331cc5" sha1="97b0e4c817e09fcd8278071843abdca7b1feeea8" />
<rom name="TOWNSSYSTEMV21L20 (Track 4).bin" size="11284896" crc="2cbcb941" md5="f0ae5f8c289353a0a074f42ff6c8796d" sha1="3ef43c66f65b6bc46e276629423c773fd46c6932" />
<rom name="TOWNSSYSTEMV21L20 (Track 5).bin" size="11129664" crc="e065d675" md5="35a5014df65b669e7e885b57f66908cf" sha1="43c16d2716f0cee0ed89089e7b8abf8f6e745bbb" />
<rom name="TOWNSSYSTEMV21L20 (Track 6).bin" size="94463376" crc="dfc79c47" md5="2c62c04019a8f0289c65164dbc185492" sha1="0096842741f90dbd52273f9b7032e534eb316a1a" />
<rom name="TOWNSSYSTEMV21L20 (Track 7).bin" size="11976384" crc="1ef2ea11" md5="b439b739ff3d456b1850f633e73d44bd" sha1="b71d0b3847f28f936a19a0d04cf7d3095a328415" />
<rom name="TOWNSSYSTEMV21L20 (Track 8).bin" size="8885856" crc="9c881a7a" md5="e982aa1e2c917dec17f6f1ddb0e9f55e" sha1="3035b2e06e23ab2bad33805e7824b0e95c783ae2" />
<rom name="TOWNSSYSTEMV21L20 (Track 9).bin" size="11658864" crc="4b131c88" md5="a2350a1554c4ff2702d73f7b858ed1a7" sha1="859d1d259bd7916003fbed2f6c2467af318fcb86" />

    Cuesheet:

FILE "TOWNSSYSTEMV21L20 (Track 1).bin" BINARY
  TRACK 01 MODE1/2352
    INDEX 01 00:00:00
FILE "TOWNSSYSTEMV21L20 (Track 2).bin" BINARY
  TRACK 02 AUDIO
    INDEX 00 00:00:00
    INDEX 01 00:02:00
FILE "TOWNSSYSTEMV21L20 (Track 3).bin" BINARY
  TRACK 03 AUDIO
    INDEX 00 00:00:00
    INDEX 01 00:03:43
FILE "TOWNSSYSTEMV21L20 (Track 4).bin" BINARY
  TRACK 04 AUDIO
    INDEX 00 00:00:00
    INDEX 01 00:02:23
FILE "TOWNSSYSTEMV21L20 (Track 5).bin" BINARY
  TRACK 05 AUDIO
    INDEX 00 00:00:00
    INDEX 01 00:02:22
FILE "TOWNSSYSTEMV21L20 (Track 6).bin" BINARY
  TRACK 06 AUDIO
    INDEX 00 00:00:00
    INDEX 01 00:02:55
FILE "TOWNSSYSTEMV21L20 (Track 7).bin" BINARY
  TRACK 07 AUDIO
    INDEX 00 00:00:00
    INDEX 01 00:02:47
FILE "TOWNSSYSTEMV21L20 (Track 8).bin" BINARY
  TRACK 08 AUDIO
    INDEX 00 00:00:00
    INDEX 01 00:01:55
FILE "TOWNSSYSTEMV21L20 (Track 9).bin" BINARY
  TRACK 09 AUDIO
    INDEX 00 00:00:00
    INDEX 01 00:02:37

    Write Offset: 1297

Checksums do not match http://redump.org/disc/68762/. (see tracks 3-7). Moving this to New Dumps.

BW-16D1HT | PX-W4824TU | PX-W5224A | PX-760A | Pioneer 209DBK | TS-H352C | TS-H353A | Wii

Also, your submissionInfo is incomplete (e.g. Title is missing). Please correct it.

BW-16D1HT | PX-W4824TU | PX-W5224A | PX-760A | Pioneer 209DBK | TS-H352C | TS-H353A | Wii